  0
SECTION
  2
HEADER
  9
$ACADVER
  1
AC1003
  9
$INSBASE
 10
0.0
 20
0.0
  9
$EXTMIN
 10
0.0
 20
0.0
  9
$EXTMAX
 10
210.0
 20
297.0
  9
$LIMMIN
 10
0.0
 20
0.0
  9
$LIMMAX
 10
12.0
 20
9.0
  9
$VIEWCTR
 10
6.591288
 20
4.579184
  9
$VIEWSIZE
 40
9.158369
  9
$SNAPMODE
 70
     0
  9
$SNAPUNIT
 10
1.0
 20
1.0
  9
$SNAPBASE
 10
0.0
 20
0.0
  9
$SNAPANG
 50
0.0
  9
$SNAPSTYLE
 70
     0
  9
$SNAPISOPAIR
 70
     0
  9
$GRIDMODE
 70
     0
  9
$GRIDUNIT
 10
0.0
 20
0.0
  9
$ORTHOMODE
 70
     0
  9
$REGENMODE
 70
     1
  9
$FILLMODE
 70
     1
  9
$QTEXTMODE
 70
     0
  9
$DRAGMODE
 70
     2
  9
$LTSCALE
 40
4.95
  9
$OSMODE
 70
     0
  9
$ATTMODE
 70
     1
  9
$TEXTSIZE
 40
3.2
  9
$TRACEWID
 40
0.05
  9
$TEXTSTYLE
  7
STANDARD
  9
$CLAYER
  8
0
  9
$CELTYPE
  6
CONTINUOUS
  9
$CECOLOR
 62
   256
  9
$DIMSCALE
 40
1.0
  9
$DIMASZ
 40
0.18
  9
$DIMEXO
 40
0.0625
  9
$DIMDLI
 40
0.38
  9
$DIMRND
 40
0.0
  9
$DIMDLE
 40
0.0
  9
$DIMEXE
 40
0.18
  9
$DIMTP
 40
0.0
  9
$DIMTM
 40
0.0
  9
$DIMTXT
 40
0.18
  9
$DIMCEN
 40
0.09
  9
$DIMTSZ
 40
0.0
  9
$DIMTOL
 70
     0
  9
$DIMLIM
 70
     0
  9
$DIMTIH
 70
     1
  9
$DIMTOH
 70
     1
  9
$DIMSE1
 70
     0
  9
$DIMSE2
 70
     0
  9
$DIMTAD
 70
     0
  9
$DIMZIN
 70
     0
  9
$DIMBLK
  1

  9
$DIMASO
 70
     1
  9
$DIMSHO
 70
     1
  9
$DIMPOST
  1

  9
$DIMAPOST
  1

  9
$DIMALT
 70
     0
  9
$DIMALTD
 70
     2
  9
$DIMALTF
 40
25.4
  9
$DIMLFAC
 40
1.0
  9
$LUNITS
 70
     2
  9
$LUPREC
 70
     4
  9
$AXISMODE
 70
     0
  9
$AXISUNIT
 10
0.0
 20
0.0
  9
$SKETCHINC
 40
0.1
  9
$FILLETRAD
 40
0.0
  9
$AUNITS
 70
     0
  9
$AUPREC
 70
     0
  9
$MENU
  1
acad
  9
$ELEVATION
 40
0.0
  9
$THICKNESS
 40
0.0
  9
$VIEWDIR
 10
0.0
 20
0.0
 30
1.0
  9
$LIMCHECK
 70
     0
  9
$BLIPMODE
 70
     1
  9
$CHAMFERA
 40
0.0
  9
$CHAMFERB
 40
0.0
  9
$FASTZOOM
 70
     1
  9
$SKPOLY
 70
     0
  9
$TDCREATE
 40
0.000000000
  9
$TDUPDATE
 40
0.000000000
  9
$TDINDWG
 40
0.0000000000
  9
$TDUSRTIMER
 40
0.0000000000
  9
$USRTIMER
 70
     1
  9
$ANGBASE
 50
0.0
  9
$ANGDIR
 70
     0
  9
$PDMODE
 70
     0
  9
$PDSIZE
 40
0.0
  9
$PLINEWID
 40
0.0
  9
$COORDS
 70
     1
  9
$USERI1
 70
     0
  9
$USERI2
 70
     0
  9
$USERI3
 70
     0
  9
$USERI4
 70
     0
  9
$USERI5
 70
     0
  9
$USERR1
 40
0.0
  9
$USERR2
 40
0.0
  9
$USERR3
 40
0.0
  9
$USERR4
 40
0.0
  9
$USERR5
 40
0.0
  0
ENDSEC
  0
SECTION
  2
TABLES
  0
TABLE
  2
LTYPE
 70
     5
  0
LTYPE
  2
CONTINUOUS
 70
    64
  3
Solid line
 72
    65
 73
     0
 40
0.0
  0
LTYPE
  2
DASHED
 70
    64
  3
DASHED
 72
    65
 73
     2
 40
0.75
 49
0.5
 49
-0.25
  0
LTYPE
  2
HIDDEN
 70
    64
  3
HIDDEN
 72
    65
 73
     2
 40
0.375
 49
0.25
 49
-0.125
  0
LTYPE
  2
CENTER
 70
    64
  3
CENTER
 72
    65
 73
     4
 40
2.0
 49
1.25
 49
-0.25
 49
0.25
 49
-0.25
  0
LTYPE
  2
PHANTOM
 70
    64
  3
PHANTOM
 72
    65
 73
     6
 40
2.5
 49
1.25
 49
-0.25
 49
0.25
 49
-0.25
 49
0.25
 49
-0.25
  0
ENDTAB
  0
TABLE
  2
LAYER
 70
     2
  0
LAYER
  2
0
 70
     0
 62
     7
  6
CONTINUOUS
  0
LAYER
  2
001
 70
     0
 62
     7
  6
CONTINUOUS
  0
ENDTAB
  0
TABLE
  2
STYLE
 70
     2
  0
STYLE
  2
STANDARD
 70
     0
 40
0.0
 41
1.0
 50
0.0
 71
     0
 42
0.2
  3
TXT
  4
BIGFONT
  0
STYLE
  2
TATEGAKI
 70
     4
 40
1.0
 41
1.0
 50
0.0
 71
     0
 42
0.2
  3
TXT
  4
BIGFONT
  0
ENDTAB
  0
TABLE
  2
VIEW
 70
     0
  0
ENDTAB
  0
ENDSEC
  0
SECTION
  2
BLOCKS
  0
BLOCK
  8
001
  2
*D0
 70
     1
 10
0.0
 20
0.0
  0
LINE
  8
001
 10
97.954231
 20
175.532288
 11
97.954231
 21
163.44784
  0
LINE
  8
001
 10
105.954231
 20
175.532288
 11
105.954231
 21
163.44784
  0
LINE
  8
001
 10
97.954231
 20
164.44784
 11
105.954231
 21
164.44784
  0
POLYLINE
  8
001
 66
     1
  0
VERTEX
  8
001
 10
95.954231
 20
164.983738
  0
VERTEX
  8
001
 10
97.954231
 20
164.44784
  0
VERTEX
  8
001
 10
95.954231
 20
163.911942
  0
SEQEND
  8
001
  0
POLYLINE
  8
001
 66
     1
  0
VERTEX
  8
001
 10
107.954231
 20
163.911942
  0
VERTEX
  8
001
 10
105.954231
 20
164.44784
  0
VERTEX
  8
001
 10
107.954231
 20
164.983738
  0
SEQEND
  8
001
  0
TEXT
  8
001
 10
109.297062
 20
165.69784
 40
3.6
  1
8
 41
0.763889
  0
TEXT
  8
001
 10
112.047062
 20
167.74784
 40
1.8
  1
 0
 41
1.201551
  0
TEXT
  8
001
 10
112.047062
 20
165.44784
 40
1.8
  1
-0.1
 41
1.215686
  0
POINT
  8
001
 10
97.954231
 20
175.532288
  0
POINT
  8
001
 10
105.954231
 20
175.532288
  0
POINT
  8
001
 10
105.954231
 20
164.44784
  0
LINE
  8
001
 10
97.954231
 20
164.44784
 11
94.954231
 21
164.44784
  0
LINE
  8
001
 10
105.954231
 20
164.44784
 11
118.247062
 21
164.44784
  0
ENDBLK
  8
001
  0
BLOCK
  8
001
  2
*D1
 70
     1
 10
0.0
 20
0.0
  0
LINE
  8
001
 10
106.954231
 20
176.532288
 11
118.641352
 21
176.532288
  0
LINE
  8
001
 10
106.954231
 20
181.532288
 11
118.641352
 21
181.532288
  0
LINE
  8
001
 10
117.641352
 20
176.532288
 11
117.641352
 21
181.532288
  0
POLYLINE
  8
001
 66
     1
  0
VERTEX
  8
001
 10
117.105454
 20
174.532288
  0
VERTEX
  8
001
 10
117.641352
 20
176.532288
  0
VERTEX
  8
001
 10
118.17725
 20
174.532288
  0
SEQEND
  8
001
  0
POLYLINE
  8
001
 66
     1
  0
VERTEX
  8
001
 10
118.17725
 20
183.532288
  0
VERTEX
  8
001
 10
117.641352
 20
181.532288
  0
VERTEX
  8
001
 10
117.105454
 20
183.532288
  0
SEQEND
  8
001
  0
TEXT
  8
001
 10
116.666352
 20
184.811881
 40
3.6
  1
%%c5h7
 50
90.000003
  0
TEXT
  8
001
 10
114.616352
 20
199.01188
 40
2.025
  1
 0
 50
90.000003
 41
1.395349
  0
TEXT
  8
001
 10
117.141352
 20
199.01188
 40
2.025
  1
-0.012
 50
90.000003
 41
1.285714
  0
POINT
  8
001
 10
106.954231
 20
176.532288
  0
POINT
  8
001
 10
106.954231
 20
181.532288
  0
POINT
  8
001
 10
117.641352
 20
181.532288
  0
LINE
  8
001
 10
117.641352
 20
176.532288
 11
117.641352
 21
173.532288
  0
LINE
  8
001
 10
117.641352
 20
181.532288
 11
117.641352
 21
211.049381
  0
ENDBLK
  8
001
  0
BLOCK
  8
001
  2
DIM-1
 70
     0
 10
0.0
 20
0.0
  0
TEXT
  8
001
 10
151.84173
 20
194.188185
 40
3.6
  1
黄銅
 41
0.716667
  0
POLYLINE
  8
001
 66
     1
 70
     1
 40
0.5
 41
0.5
  0
VERTEX
  8
001
 10
143.755251
 20
180.671683
 42
1.0
  0
VERTEX
  8
001
 10
143.255251
 20
180.671683
 42
1.0
  0
SEQEND
  8
001
  0
POLYLINE
  8
001
 66
     1
  0
VERTEX
  8
001
 10
143.505251
 20
180.671683
  0
VERTEX
  8
001
 10
149.84173
 20
193.188185
  0
VERTEX
  8
001
 10
160.03373
 20
193.188185
  0
SEQEND
  8
001
  0
ENDBLK
  8
001
  0
BLOCK
  8
001
  2
DIM-2
 70
     0
 10
0.0
 20
0.0
  0
TEXT
  8
001
 10
154.814399
 20
168.842268
 40
3.6
  1
軟鋼
 41
0.716667
  0
POLYLINE
  8
001
 66
     1
 70
     1
 40
0.5
 41
0.5
  0
VERTEX
  8
001
 10
143.129426
 20
178.168382
 42
1.0
  0
VERTEX
  8
001
 10
142.629426
 20
178.168382
 42
1.0
  0
SEQEND
  8
001
  0
POLYLINE
  8
001
 66
     1
  0
VERTEX
  8
001
 10
142.879426
 20
178.168382
  0
VERTEX
  8
001
 10
152.814399
 20
167.842268
  0
VERTEX
  8
001
 10
163.006399
 20
167.842268
  0
SEQEND
  8
001
  0
ENDBLK
  8
001
  0
BLOCK
  8
001
  2
DIM-3
 70
     0
 10
0.0
 20
0.0
  0
TEXT
  8
001
 10
44.902063
 20
168.842268
 40
3.6
  1
軟鋼
 41
0.716667
  0
POLYLINE
  8
001
 66
     1
 70
     1
 40
0.5
 41
0.5
  0
VERTEX
  8
001
 10
63.279036
 20
178.168382
 42
1.0
  0
VERTEX
  8
001
 10
62.779036
 20
178.168382
 42
1.0
  0
SEQEND
  8
001
  0
POLYLINE
  8
001
 66
     1
  0
VERTEX
  8
001
 10
63.029036
 20
178.168382
  0
VERTEX
  8
001
 10
53.094063
 20
167.842268
  0
VERTEX
  8
001
 10
42.902063
 20
167.842268
  0
SEQEND
  8
001
  0
ENDBLK
  8
001
  0
ENDSEC
  0
SECTION
  2
ENTITIES
  0
DIMENSION
  8
001
  2
*D0
 10
105.954231
 20
164.44784
 11
109.297062
 21
165.69784
 13
97.954231
 23
175.532288
 14
105.954231
 24
175.532288
  0
DIMENSION
  8
001
  2
*D1
 10
117.641352
 20
181.532288
 11
116.666352
 21
184.811881
 13
106.954231
 23
176.532288
 14
106.954231
 24
181.532288
 50
90.0
  0
INSERT
  8
001
  6
BYBLOCK
 62
     0
  2
DIM-1
 10
0.0
 20
0.0
  0
INSERT
  8
001
  6
BYBLOCK
 62
     0
  2
DIM-2
 10
0.0
 20
0.0
  0
INSERT
  8
001
  6
BYBLOCK
 62
     0
  2
DIM-3
 10
0.0
 20
0.0
  0
LINE
  8
001
  6
CENTER
 10
107.954231
 20
179.032288
 11
95.954231
 21
179.032288
  0
LINE
  8
001
 62
     3
 10
105.954231
 20
176.532288
 11
97.954231
 21
176.532288
  0
LINE
  8
001
 62
     3
 10
97.954231
 20
181.532288
 11
105.954231
 21
181.532288
  0
LINE
  8
001
 62
     3
 10
105.954231
 20
176.532288
 11
105.954231
 21
181.532288
  0
LINE
  8
001
 62
     3
 10
97.954231
 20
181.532288
 11
97.954231
 21
176.532288
  0
CIRCLE
  8
001
 62
     3
 10
142.297088
 20
179.032288
 40
2.5
  0
CIRCLE
  8
001
 10
142.297088
 20
179.032288
 40
1.75
  0
LINE
  8
001
  6
CENTER
 10
142.297088
 20
184.032288
 11
142.297088
 21
174.032288
  0
LINE
  8
001
  6
CENTER
 10
137.297088
 20
179.032288
 11
147.297088
 21
179.032288
  0
CIRCLE
  8
001
 10
63.611374
 20
179.032288
 40
1.75
  0
LINE
  8
001
  6
CENTER
 10
63.611374
 20
184.032288
 11
63.611374
 21
174.032288
  0
CIRCLE
  8
001
 62
     3
 10
63.611374
 20
179.032288
 40
2.5
  0
LINE
  8
001
  6
CENTER
 10
68.611374
 20
179.032288
 11
58.611374
 21
179.032288
  0
LINE
  8
001
 10
0.0
 20
297.0
 11
0.0
 21
0.0
  0
LINE
  8
001
 10
0.0
 20
0.0
 11
210.0
 21
0.0
  0
LINE
  8
001
 10
210.0
 20
0.0
 11
210.0
 21
297.0
  0
LINE
  8
001
 10
210.0
 20
297.0
 11
0.0
 21
297.0
  0
TEXT
  8
001
 10
108.156221
 20
177.237593
 40
3.6
  1
S
  0
TEXT
  8
001
 10
92.573397
 20
177.237593
 40
3.6
  1
N
  0
LINE
  8
001
  6
DASHED
 10
105.954231
 20
180.782288
 11
97.954231
 21
180.782288
  0
LINE
  8
001
  6
DASHED
 10
105.954231
 20
177.282288
 11
97.954231
 21
177.282288
  0
TEXT
  8
001
 10
147.594426
 20
21.847548
 40
3.6
  1
KM-0005
 41
0.926154
  0
TEXT
  8
001
 10
92.409344
 20
114.924918
 40
3.6
  1
表面処理：　　なし　　
 41
0.716667
  0
LINE
  8
001
 10
92.409344
 20
113.924918
 11
126.465344
 21
113.924918
  0
ENDSEC
  0
EOF
