  0
SECTION
  2
HEADER
  9
$ACADVER
  1
AC1003
  9
$INSBASE
 10
0.0
 20
0.0
  9
$EXTMIN
 10
0.0
 20
0.0
  9
$EXTMAX
 10
210.0
 20
297.0
  9
$LIMMIN
 10
0.0
 20
0.0
  9
$LIMMAX
 10
12.0
 20
9.0
  9
$VIEWCTR
 10
6.591288
 20
4.579184
  9
$VIEWSIZE
 40
9.158369
  9
$SNAPMODE
 70
     0
  9
$SNAPUNIT
 10
1.0
 20
1.0
  9
$SNAPBASE
 10
0.0
 20
0.0
  9
$SNAPANG
 50
0.0
  9
$SNAPSTYLE
 70
     0
  9
$SNAPISOPAIR
 70
     0
  9
$GRIDMODE
 70
     0
  9
$GRIDUNIT
 10
0.0
 20
0.0
  9
$ORTHOMODE
 70
     0
  9
$REGENMODE
 70
     1
  9
$FILLMODE
 70
     1
  9
$QTEXTMODE
 70
     0
  9
$DRAGMODE
 70
     2
  9
$LTSCALE
 40
4.95
  9
$OSMODE
 70
     0
  9
$ATTMODE
 70
     1
  9
$TEXTSIZE
 40
3.2
  9
$TRACEWID
 40
0.05
  9
$TEXTSTYLE
  7
STANDARD
  9
$CLAYER
  8
0
  9
$CELTYPE
  6
CONTINUOUS
  9
$CECOLOR
 62
   256
  9
$DIMSCALE
 40
1.0
  9
$DIMASZ
 40
0.18
  9
$DIMEXO
 40
0.0625
  9
$DIMDLI
 40
0.38
  9
$DIMRND
 40
0.0
  9
$DIMDLE
 40
0.0
  9
$DIMEXE
 40
0.18
  9
$DIMTP
 40
0.0
  9
$DIMTM
 40
0.0
  9
$DIMTXT
 40
0.18
  9
$DIMCEN
 40
0.09
  9
$DIMTSZ
 40
0.0
  9
$DIMTOL
 70
     0
  9
$DIMLIM
 70
     0
  9
$DIMTIH
 70
     1
  9
$DIMTOH
 70
     1
  9
$DIMSE1
 70
     0
  9
$DIMSE2
 70
     0
  9
$DIMTAD
 70
     0
  9
$DIMZIN
 70
     0
  9
$DIMBLK
  1

  9
$DIMASO
 70
     1
  9
$DIMSHO
 70
     1
  9
$DIMPOST
  1

  9
$DIMAPOST
  1

  9
$DIMALT
 70
     0
  9
$DIMALTD
 70
     2
  9
$DIMALTF
 40
25.4
  9
$DIMLFAC
 40
1.0
  9
$LUNITS
 70
     2
  9
$LUPREC
 70
     4
  9
$AXISMODE
 70
     0
  9
$AXISUNIT
 10
0.0
 20
0.0
  9
$SKETCHINC
 40
0.1
  9
$FILLETRAD
 40
0.0
  9
$AUNITS
 70
     0
  9
$AUPREC
 70
     0
  9
$MENU
  1
acad
  9
$ELEVATION
 40
0.0
  9
$THICKNESS
 40
0.0
  9
$VIEWDIR
 10
0.0
 20
0.0
 30
1.0
  9
$LIMCHECK
 70
     0
  9
$BLIPMODE
 70
     1
  9
$CHAMFERA
 40
0.0
  9
$CHAMFERB
 40
0.0
  9
$FASTZOOM
 70
     1
  9
$SKPOLY
 70
     0
  9
$TDCREATE
 40
0.000000000
  9
$TDUPDATE
 40
0.000000000
  9
$TDINDWG
 40
0.0000000000
  9
$TDUSRTIMER
 40
0.0000000000
  9
$USRTIMER
 70
     1
  9
$ANGBASE
 50
0.0
  9
$ANGDIR
 70
     0
  9
$PDMODE
 70
     0
  9
$PDSIZE
 40
0.0
  9
$PLINEWID
 40
0.0
  9
$COORDS
 70
     1
  9
$USERI1
 70
     0
  9
$USERI2
 70
     0
  9
$USERI3
 70
     0
  9
$USERI4
 70
     0
  9
$USERI5
 70
     0
  9
$USERR1
 40
0.0
  9
$USERR2
 40
0.0
  9
$USERR3
 40
0.0
  9
$USERR4
 40
0.0
  9
$USERR5
 40
0.0
  0
ENDSEC
  0
SECTION
  2
TABLES
  0
TABLE
  2
LTYPE
 70
     5
  0
LTYPE
  2
CONTINUOUS
 70
    64
  3
Solid line
 72
    65
 73
     0
 40
0.0
  0
LTYPE
  2
DASHED
 70
    64
  3
DASHED
 72
    65
 73
     2
 40
0.75
 49
0.5
 49
-0.25
  0
LTYPE
  2
HIDDEN
 70
    64
  3
HIDDEN
 72
    65
 73
     2
 40
0.375
 49
0.25
 49
-0.125
  0
LTYPE
  2
CENTER
 70
    64
  3
CENTER
 72
    65
 73
     4
 40
2.0
 49
1.25
 49
-0.25
 49
0.25
 49
-0.25
  0
LTYPE
  2
PHANTOM
 70
    64
  3
PHANTOM
 72
    65
 73
     6
 40
2.5
 49
1.25
 49
-0.25
 49
0.25
 49
-0.25
 49
0.25
 49
-0.25
  0
ENDTAB
  0
TABLE
  2
LAYER
 70
     2
  0
LAYER
  2
0
 70
     0
 62
     7
  6
CONTINUOUS
  0
LAYER
  2
001
 70
     0
 62
     7
  6
CONTINUOUS
  0
ENDTAB
  0
TABLE
  2
STYLE
 70
     2
  0
STYLE
  2
STANDARD
 70
     0
 40
0.0
 41
1.0
 50
0.0
 71
     0
 42
0.2
  3
TXT
  4
BIGFONT
  0
STYLE
  2
TATEGAKI
 70
     4
 40
1.0
 41
1.0
 50
0.0
 71
     0
 42
0.2
  3
TXT
  4
BIGFONT
  0
ENDTAB
  0
TABLE
  2
VIEW
 70
     0
  0
ENDTAB
  0
ENDSEC
  0
SECTION
  2
BLOCKS
  0
BLOCK
  8
001
  2
*D0
 70
     1
 10
0.0
 20
0.0
  0
LINE
  8
001
 10
99.122775
 20
175.365207
 11
99.122775
 21
162.610076
  0
LINE
  8
001
 10
107.122775
 20
175.365207
 11
107.122775
 21
162.610076
  0
LINE
  8
001
 10
99.122775
 20
163.610076
 11
107.122775
 21
163.610076
  0
POLYLINE
  8
001
 66
     1
  0
VERTEX
  8
001
 10
97.122775
 20
164.145974
  0
VERTEX
  8
001
 10
99.122775
 20
163.610076
  0
VERTEX
  8
001
 10
97.122775
 20
163.074177
  0
SEQEND
  8
001
  0
POLYLINE
  8
001
 66
     1
  0
VERTEX
  8
001
 10
109.122775
 20
163.074177
  0
VERTEX
  8
001
 10
107.122775
 20
163.610076
  0
VERTEX
  8
001
 10
109.122775
 20
164.145974
  0
SEQEND
  8
001
  0
TEXT
  8
001
 10
110.908683
 20
164.860076
 40
3.6
  1
8
 41
0.763889
  0
TEXT
  8
001
 10
113.658683
 20
166.910076
 40
1.8
  1
 0
 41
1.201551
  0
TEXT
  8
001
 10
113.658683
 20
164.610076
 40
1.8
  1
-0.1
 41
1.215686
  0
POINT
  8
001
 10
99.122775
 20
175.365207
  0
POINT
  8
001
 10
107.122775
 20
175.365207
  0
POINT
  8
001
 10
107.122775
 20
163.610076
  0
LINE
  8
001
 10
99.122775
 20
163.610076
 11
96.122775
 21
163.610076
  0
LINE
  8
001
 10
107.122775
 20
163.610076
 11
119.858683
 21
163.610076
  0
ENDBLK
  8
001
  0
BLOCK
  8
001
  2
*D1
 70
     1
 10
0.0
 20
0.0
  0
LINE
  8
001
 10
108.122775
 20
176.365207
 11
119.478682
 21
176.365207
  0
LINE
  8
001
 10
108.122775
 20
183.365207
 11
119.478682
 21
183.365207
  0
LINE
  8
001
 10
118.478682
 20
176.365207
 11
118.478682
 21
183.365207
  0
POLYLINE
  8
001
 66
     1
  0
VERTEX
  8
001
 10
117.942783
 20
174.365207
  0
VERTEX
  8
001
 10
118.478682
 20
176.365207
  0
VERTEX
  8
001
 10
119.01458
 20
174.365207
  0
SEQEND
  8
001
  0
POLYLINE
  8
001
 66
     1
  0
VERTEX
  8
001
 10
119.01458
 20
185.365207
  0
VERTEX
  8
001
 10
118.478682
 20
183.365207
  0
VERTEX
  8
001
 10
117.942783
 20
185.365207
  0
SEQEND
  8
001
  0
TEXT
  8
001
 10
117.503681
 20
187.016162
 40
3.6
  1
%%c7h7
 50
90.000003
  0
TEXT
  8
001
 10
115.453681
 20
201.216161
 40
2.025
  1
 0
 50
90.000003
 41
1.395349
  0
TEXT
  8
001
 10
117.978681
 20
201.216161
 40
2.025
  1
-0.015
 50
90.000003
 41
1.285714
  0
POINT
  8
001
 10
108.122775
 20
176.365207
  0
POINT
  8
001
 10
108.122775
 20
183.365207
  0
POINT
  8
001
 10
118.478682
 20
183.365207
  0
LINE
  8
001
 10
118.478682
 20
176.365207
 11
118.478682
 21
173.365207
  0
LINE
  8
001
 10
118.478682
 20
183.365207
 11
118.478682
 21
213.253662
  0
ENDBLK
  8
001
  0
BLOCK
  8
001
  2
DIM-1
 70
     0
 10
0.0
 20
0.0
  0
TEXT
  8
001
 10
149.873249
 20
195.664425
 40
3.6
  1
黄銅
 41
0.716667
  0
POLYLINE
  8
001
 66
     1
 70
     1
 40
0.5
 41
0.5
  0
VERTEX
  8
001
 10
141.78677
 20
182.147923
 42
1.0
  0
VERTEX
  8
001
 10
141.28677
 20
182.147923
 42
1.0
  0
SEQEND
  8
001
  0
POLYLINE
  8
001
 66
     1
  0
VERTEX
  8
001
 10
141.53677
 20
182.147923
  0
VERTEX
  8
001
 10
147.873249
 20
194.664425
  0
VERTEX
  8
001
 10
158.065249
 20
194.664425
  0
SEQEND
  8
001
  0
ENDBLK
  8
001
  0
BLOCK
  8
001
  2
DIM-2
 70
     0
 10
0.0
 20
0.0
  0
TEXT
  8
001
 10
152.402111
 20
169.321196
 40
3.6
  1
軟鋼
 41
0.716667
  0
POLYLINE
  8
001
 66
     1
 70
     1
 40
0.5
 41
0.5
  0
VERTEX
  8
001
 10
140.717138
 20
178.64731
 42
1.0
  0
VERTEX
  8
001
 10
140.217138
 20
178.64731
 42
1.0
  0
SEQEND
  8
001
  0
POLYLINE
  8
001
 66
     1
  0
VERTEX
  8
001
 10
140.467138
 20
178.64731
  0
VERTEX
  8
001
 10
150.402111
 20
168.321196
  0
VERTEX
  8
001
 10
160.594111
 20
168.321196
  0
SEQEND
  8
001
  0
ENDBLK
  8
001
  0
BLOCK
  8
001
  2
DIM-3
 70
     0
 10
0.0
 20
0.0
  0
TEXT
  8
001
 10
51.841704
 20
169.418435
 40
3.6
  1
軟鋼
 41
0.716667
  0
POLYLINE
  8
001
 66
     1
 70
     1
 40
0.5
 41
0.5
  0
VERTEX
  8
001
 10
70.218678
 20
178.744549
 42
1.0
  0
VERTEX
  8
001
 10
69.718678
 20
178.744549
 42
1.0
  0
SEQEND
  8
001
  0
POLYLINE
  8
001
 66
     1
  0
VERTEX
  8
001
 10
69.968678
 20
178.744549
  0
VERTEX
  8
001
 10
60.033704
 20
168.418435
  0
VERTEX
  8
001
 10
49.841704
 20
168.418435
  0
SEQEND
  8
001
  0
ENDBLK
  8
001
  0
ENDSEC
  0
SECTION
  2
ENTITIES
  0
DIMENSION
  8
001
  2
*D0
 10
107.122775
 20
163.610076
 11
110.908683
 21
164.860076
 13
99.122775
 23
175.365207
 14
107.122775
 24
175.365207
  0
DIMENSION
  8
001
  2
*D1
 10
118.478682
 20
183.365207
 11
117.503681
 21
187.016162
 13
108.122775
 23
176.365207
 14
108.122775
 24
183.365207
 50
90.0
  0
INSERT
  8
001
  6
BYBLOCK
 62
     0
  2
DIM-1
 10
0.0
 20
0.0
  0
INSERT
  8
001
  6
BYBLOCK
 62
     0
  2
DIM-2
 10
0.0
 20
0.0
  0
INSERT
  8
001
  6
BYBLOCK
 62
     0
  2
DIM-3
 10
0.0
 20
0.0
  0
LINE
  8
001
  6
CENTER
 10
109.122775
 20
179.865207
 11
97.122775
 21
179.865207
  0
LINE
  8
001
 62
     3
 10
107.122775
 20
176.365207
 11
107.122775
 21
183.365207
  0
LINE
  8
001
 62
     3
 10
99.122775
 20
183.365207
 11
99.122775
 21
176.365207
  0
LINE
  8
001
  6
CENTER
 10
139.465632
 20
184.865207
 11
139.465632
 21
174.865207
  0
LINE
  8
001
  6
CENTER
 10
134.465632
 20
179.865207
 11
144.465632
 21
179.865207
  0
LINE
  8
001
  6
CENTER
 10
70.779918
 20
184.865207
 11
70.779918
 21
174.865207
  0
LINE
  8
001
  6
CENTER
 10
75.779918
 20
179.865207
 11
65.779918
 21
179.865207
  0
LINE
  8
001
 62
     3
 10
99.122775
 20
183.365207
 11
107.122775
 21
183.365207
  0
LINE
  8
001
 62
     3
 10
99.122775
 20
176.365207
 11
107.122775
 21
176.365207
  0
CIRCLE
  8
001
 62
     3
 10
70.779918
 20
179.865207
 40
3.5
  0
CIRCLE
  8
001
 10
70.779918
 20
179.865207
 40
2.75
  0
CIRCLE
  8
001
 10
139.465632
 20
179.865207
 40
2.75
  0
CIRCLE
  8
001
 62
     3
 10
139.465632
 20
179.865207
 40
3.5
  0
LINE
  8
001
 10
0.0
 20
297.0
 11
210.0
 21
297.0
  0
LINE
  8
001
 10
210.0
 20
297.0
 11
210.0
 21
0.0
  0
LINE
  8
001
 10
210.0
 20
0.0
 11
0.0
 21
0.0
  0
LINE
  8
001
 10
0.0
 20
0.0
 11
0.0
 21
297.0
  0
TEXT
  8
001
 10
147.594426
 20
21.847548
 40
3.6
  1
KM-0007
 41
0.926154
  0
TEXT
  8
001
 10
93.778917
 20
178.082104
 40
3.6
  1
N
  0
TEXT
  8
001
 10
108.861741
 20
178.082104
 40
3.6
  1
S
  0
LINE
  8
001
  6
DASHED
 10
107.122775
 20
182.615207
 11
99.122775
 21
182.615207
  0
LINE
  8
001
  6
DASHED
 10
107.122775
 20
177.115207
 11
99.122775
 21
177.115207
  0
TEXT
  8
001
 10
92.409344
 20
114.924918
 40
3.6
  1
表面処理：　　なし　　
 41
0.716667
  0
LINE
  8
001
 10
92.409344
 20
113.924918
 11
126.465344
 21
113.924918
  0
ENDSEC
  0
EOF
