  0
SECTION
  2
HEADER
  9
$ACADVER
  1
AC1003
  9
$INSBASE
 10
0.0
 20
0.0
  9
$EXTMIN
 10
0.0
 20
0.0
  9
$EXTMAX
 10
210.0
 20
297.0
  9
$LIMMIN
 10
0.0
 20
0.0
  9
$LIMMAX
 10
12.0
 20
9.0
  9
$VIEWCTR
 10
6.591288
 20
4.579184
  9
$VIEWSIZE
 40
9.158369
  9
$SNAPMODE
 70
     0
  9
$SNAPUNIT
 10
1.0
 20
1.0
  9
$SNAPBASE
 10
0.0
 20
0.0
  9
$SNAPANG
 50
0.0
  9
$SNAPSTYLE
 70
     0
  9
$SNAPISOPAIR
 70
     0
  9
$GRIDMODE
 70
     0
  9
$GRIDUNIT
 10
0.0
 20
0.0
  9
$ORTHOMODE
 70
     0
  9
$REGENMODE
 70
     1
  9
$FILLMODE
 70
     1
  9
$QTEXTMODE
 70
     0
  9
$DRAGMODE
 70
     2
  9
$LTSCALE
 40
4.95
  9
$OSMODE
 70
     0
  9
$ATTMODE
 70
     1
  9
$TEXTSIZE
 40
3.2
  9
$TRACEWID
 40
0.05
  9
$TEXTSTYLE
  7
STANDARD
  9
$CLAYER
  8
0
  9
$CELTYPE
  6
CONTINUOUS
  9
$CECOLOR
 62
   256
  9
$DIMSCALE
 40
1.0
  9
$DIMASZ
 40
0.18
  9
$DIMEXO
 40
0.0625
  9
$DIMDLI
 40
0.38
  9
$DIMRND
 40
0.0
  9
$DIMDLE
 40
0.0
  9
$DIMEXE
 40
0.18
  9
$DIMTP
 40
0.0
  9
$DIMTM
 40
0.0
  9
$DIMTXT
 40
0.18
  9
$DIMCEN
 40
0.09
  9
$DIMTSZ
 40
0.0
  9
$DIMTOL
 70
     0
  9
$DIMLIM
 70
     0
  9
$DIMTIH
 70
     1
  9
$DIMTOH
 70
     1
  9
$DIMSE1
 70
     0
  9
$DIMSE2
 70
     0
  9
$DIMTAD
 70
     0
  9
$DIMZIN
 70
     0
  9
$DIMBLK
  1

  9
$DIMASO
 70
     1
  9
$DIMSHO
 70
     1
  9
$DIMPOST
  1

  9
$DIMAPOST
  1

  9
$DIMALT
 70
     0
  9
$DIMALTD
 70
     2
  9
$DIMALTF
 40
25.4
  9
$DIMLFAC
 40
1.0
  9
$LUNITS
 70
     2
  9
$LUPREC
 70
     4
  9
$AXISMODE
 70
     0
  9
$AXISUNIT
 10
0.0
 20
0.0
  9
$SKETCHINC
 40
0.1
  9
$FILLETRAD
 40
0.0
  9
$AUNITS
 70
     0
  9
$AUPREC
 70
     0
  9
$MENU
  1
acad
  9
$ELEVATION
 40
0.0
  9
$THICKNESS
 40
0.0
  9
$VIEWDIR
 10
0.0
 20
0.0
 30
1.0
  9
$LIMCHECK
 70
     0
  9
$BLIPMODE
 70
     1
  9
$CHAMFERA
 40
0.0
  9
$CHAMFERB
 40
0.0
  9
$FASTZOOM
 70
     1
  9
$SKPOLY
 70
     0
  9
$TDCREATE
 40
0.000000000
  9
$TDUPDATE
 40
0.000000000
  9
$TDINDWG
 40
0.0000000000
  9
$TDUSRTIMER
 40
0.0000000000
  9
$USRTIMER
 70
     1
  9
$ANGBASE
 50
0.0
  9
$ANGDIR
 70
     0
  9
$PDMODE
 70
     0
  9
$PDSIZE
 40
0.0
  9
$PLINEWID
 40
0.0
  9
$COORDS
 70
     1
  9
$USERI1
 70
     0
  9
$USERI2
 70
     0
  9
$USERI3
 70
     0
  9
$USERI4
 70
     0
  9
$USERI5
 70
     0
  9
$USERR1
 40
0.0
  9
$USERR2
 40
0.0
  9
$USERR3
 40
0.0
  9
$USERR4
 40
0.0
  9
$USERR5
 40
0.0
  0
ENDSEC
  0
SECTION
  2
TABLES
  0
TABLE
  2
LTYPE
 70
     5
  0
LTYPE
  2
CONTINUOUS
 70
    64
  3
Solid line
 72
    65
 73
     0
 40
0.0
  0
LTYPE
  2
DASHED
 70
    64
  3
DASHED
 72
    65
 73
     2
 40
0.75
 49
0.5
 49
-0.25
  0
LTYPE
  2
HIDDEN
 70
    64
  3
HIDDEN
 72
    65
 73
     2
 40
0.375
 49
0.25
 49
-0.125
  0
LTYPE
  2
CENTER
 70
    64
  3
CENTER
 72
    65
 73
     4
 40
2.0
 49
1.25
 49
-0.25
 49
0.25
 49
-0.25
  0
LTYPE
  2
PHANTOM
 70
    64
  3
PHANTOM
 72
    65
 73
     6
 40
2.5
 49
1.25
 49
-0.25
 49
0.25
 49
-0.25
 49
0.25
 49
-0.25
  0
ENDTAB
  0
TABLE
  2
LAYER
 70
     2
  0
LAYER
  2
0
 70
     0
 62
     7
  6
CONTINUOUS
  0
LAYER
  2
001
 70
     0
 62
     7
  6
CONTINUOUS
  0
ENDTAB
  0
TABLE
  2
STYLE
 70
     2
  0
STYLE
  2
STANDARD
 70
     0
 40
0.0
 41
1.0
 50
0.0
 71
     0
 42
0.2
  3
TXT
  4
BIGFONT
  0
STYLE
  2
TATEGAKI
 70
     4
 40
1.0
 41
1.0
 50
0.0
 71
     0
 42
0.2
  3
TXT
  4
BIGFONT
  0
ENDTAB
  0
TABLE
  2
VIEW
 70
     0
  0
ENDTAB
  0
ENDSEC
  0
SECTION
  2
BLOCKS
  0
BLOCK
  8
001
  2
*D0
 70
     1
 10
0.0
 20
0.0
  0
LINE
  8
001
 10
85.064862
 20
185.792259
 11
98.283615
 21
185.792259
  0
LINE
  8
001
 10
85.064862
 20
167.792259
 11
98.283615
 21
167.792259
  0
LINE
  8
001
 10
97.283615
 20
185.792259
 11
97.283615
 21
167.792259
  0
POLYLINE
  8
001
 66
     1
  0
VERTEX
  8
001
 10
96.747716
 20
183.792259
  0
VERTEX
  8
001
 10
97.283615
 20
185.792259
  0
VERTEX
  8
001
 10
97.819513
 20
183.792259
  0
SEQEND
  8
001
  0
POLYLINE
  8
001
 66
     1
  0
VERTEX
  8
001
 10
97.819513
 20
169.792259
  0
VERTEX
  8
001
 10
97.283615
 20
167.792259
  0
VERTEX
  8
001
 10
96.747716
 20
169.792259
  0
SEQEND
  8
001
  0
TEXT
  8
001
 10
96.283615
 20
171.492259
 40
3.6
  1
%%c18
 50
90.000003
 41
1.125
  0
POINT
  8
001
 10
85.064862
 20
185.792259
  0
POINT
  8
001
 10
85.064862
 20
167.792259
  0
POINT
  8
001
 10
97.283615
 20
167.792259
  0
ENDBLK
  8
001
  0
BLOCK
  8
001
  2
*D1
 70
     1
 10
0.0
 20
0.0
  0
LINE
  8
001
 10
76.264862
 20
186.292259
 11
76.264862
 21
196.835565
  0
LINE
  8
001
 10
84.264862
 20
186.792259
 11
84.264862
 21
196.835565
  0
LINE
  8
001
 10
76.264862
 20
195.835565
 11
84.264862
 21
195.835565
  0
POLYLINE
  8
001
 66
     1
  0
VERTEX
  8
001
 10
78.264862
 20
195.299666
  0
VERTEX
  8
001
 10
76.264862
 20
195.835565
  0
VERTEX
  8
001
 10
78.264862
 20
196.371463
  0
SEQEND
  8
001
  0
POLYLINE
  8
001
 66
     1
  0
VERTEX
  8
001
 10
82.264862
 20
196.371463
  0
VERTEX
  8
001
 10
84.264862
 20
195.835565
  0
VERTEX
  8
001
 10
82.264862
 20
195.299666
  0
SEQEND
  8
001
  0
TEXT
  8
001
 10
78.564862
 20
196.835564
 40
3.6
  1
8
  0
POINT
  8
001
 10
76.264862
 20
186.292259
  0
POINT
  8
001
 10
84.264862
 20
186.792259
  0
POINT
  8
001
 10
84.264862
 20
195.835565
  0
ENDBLK
  8
001
  0
BLOCK
  8
001
  2
DIM-1
 70
     0
 10
0.0
 20
0.0
  0
TEXT
  8
001
 10
100.314113
 20
156.970439
 40
3.6
  1
吸着面
 41
0.833333
  0
POLYLINE
  8
001
 66
     1
  0
VERTEX
  8
001
 10
85.058377
 20
170.261994
  0
VERTEX
  8
001
 10
84.264862
 20
172.174459
  0
VERTEX
  8
001
 10
85.908299
 20
170.914973
  0
SEQEND
  8
001
  0
POLYLINE
  8
001
 66
     1
  0
VERTEX
  8
001
 10
84.264862
 20
172.174459
  0
VERTEX
  8
001
 10
96.714113
 20
155.970439
  0
VERTEX
  8
001
 10
114.514113
 20
155.970439
  0
SEQEND
  8
001
  0
ENDBLK
  8
001
  0
BLOCK
  8
001
  2
DIM-2
 70
     0
 10
0.0
 20
0.0
  0
TEXT
  8
001
 10
151.407052
 20
196.318107
 40
3.6
  1
黄銅
 41
0.716667
  0
POLYLINE
  8
001
 66
     1
 70
     1
 40
0.5
 41
0.5
  0
VERTEX
  8
001
 10
143.320573
 20
182.801605
 42
1.0
  0
VERTEX
  8
001
 10
142.820573
 20
182.801605
 42
1.0
  0
SEQEND
  8
001
  0
POLYLINE
  8
001
 66
     1
  0
VERTEX
  8
001
 10
143.070573
 20
182.801605
  0
VERTEX
  8
001
 10
149.407052
 20
195.318107
  0
VERTEX
  8
001
 10
159.599052
 20
195.318107
  0
SEQEND
  8
001
  0
ENDBLK
  8
001
  0
BLOCK
  8
001
  2
DIM-3
 70
     0
 10
0.0
 20
0.0
  0
TEXT
  8
001
 10
154.420217
 20
157.980816
 40
3.6
  1
軟鋼
 41
0.716667
  0
POLYLINE
  8
001
 66
     1
 70
     1
 40
0.5
 41
0.5
  0
VERTEX
  8
001
 10
142.476038
 20
172.117626
 42
1.0
  0
VERTEX
  8
001
 10
141.976038
 20
172.117626
 42
1.0
  0
SEQEND
  8
001
  0
POLYLINE
  8
001
 66
     1
 70
     1
 40
0.5
 41
0.5
  0
VERTEX
  8
001
 10
142.425089
 20
168.70475
 42
1.0
  0
VERTEX
  8
001
 10
141.925089
 20
168.70475
 42
1.0
  0
SEQEND
  8
001
  0
POLYLINE
  8
001
 66
     1
  0
VERTEX
  8
001
 10
142.226038
 20
172.117626
  0
VERTEX
  8
001
 10
152.420217
 20
156.980816
  0
VERTEX
  8
001
 10
162.612217
 20
156.980816
  0
SEQEND
  8
001
  0
POLYLINE
  8
001
 66
     1
  0
VERTEX
  8
001
 10
142.175089
 20
168.70475
  0
VERTEX
  8
001
 10
152.420217
 20
156.980816
  0
SEQEND
  8
001
  0
ENDBLK
  8
001
  0
ENDSEC
  0
SECTION
  2
ENTITIES
  0
DIMENSION
  8
001
  2
*D0
 10
97.283615
 20
167.792259
 11
96.283615
 21
171.492259
 13
85.064862
 23
185.792259
 14
85.064862
 24
167.792259
 50
270.0
  0
DIMENSION
  8
001
  2
*D1
 10
84.264862
 20
195.835565
 11
78.564862
 21
196.835564
 13
76.264862
 23
186.292259
 14
84.264862
 24
186.792259
  0
INSERT
  8
001
  6
BYBLOCK
 62
     0
  2
DIM-1
 10
0.0
 20
0.0
  0
INSERT
  8
001
  6
BYBLOCK
 62
     0
  2
DIM-2
 10
0.0
 20
0.0
  0
INSERT
  8
001
  6
BYBLOCK
 62
     0
  2
DIM-3
 10
0.0
 20
0.0
  0
LINE
  8
001
  6
CENTER
 10
74.264862
 20
176.792259
 11
86.390019
 21
176.792259
  0
LINE
  8
001
 62
     3
 10
76.264862
 20
168.292259
 11
76.264862
 21
185.292259
  0
LINE
  8
001
 10
76.764862
 20
167.792259
 11
76.764862
 21
185.792259
  0
LINE
  8
001
 62
     3
 10
84.064862
 20
167.792259
 11
76.764862
 21
167.792259
  0
LINE
  8
001
 62
     3
 10
84.064862
 20
185.792259
 11
76.764862
 21
185.792259
  0
LINE
  8
001
 62
     3
 10
84.264862
 20
167.992259
 11
84.264862
 21
185.592259
  0
LINE
  8
001
 62
     3
 10
76.764862
 20
185.792259
 11
76.264862
 21
185.292259
  0
LINE
  8
001
 62
     3
 10
76.264862
 20
168.292259
 11
76.764862
 21
167.792259
  0
LINE
  8
001
 62
     3
 10
84.264862
 20
185.592259
 11
84.064862
 21
185.792259
  0
LINE
  8
001
 62
     3
 10
84.264862
 20
167.992259
 11
84.064862
 21
167.792259
  0
CIRCLE
  8
001
 62
     3
 10
139.60772
 20
176.792259
 40
9.0
  0
CIRCLE
  8
001
 10
139.60772
 20
176.792259
 40
7.6
  0
CIRCLE
  8
001
 10
139.60772
 20
176.792259
 40
6.3
  0
LINE
  8
001
  6
CENTER
 10
139.60772
 20
188.792259
 11
139.60772
 21
164.792259
  0
LINE
  8
001
  6
CENTER
 10
127.60772
 20
176.792259
 11
151.60772
 21
176.792259
  0
LINE
  8
001
  6
DASHED
 10
84.264862
 20
183.092259
 11
81.264862
 21
183.092259
  0
LINE
  8
001
  6
DASHED
 10
84.264862
 20
184.392259
 11
81.264862
 21
184.392259
  0
LINE
  8
001
  6
DASHED
 10
84.264862
 20
170.492259
 11
81.264862
 21
170.492259
  0
LINE
  8
001
  6
DASHED
 10
84.264862
 20
169.192259
 11
81.264862
 21
169.192259
  0
LINE
  8
001
 10
0.0
 20
297.0
 11
210.0
 21
297.0
  0
LINE
  8
001
 10
210.0
 20
297.0
 11
210.0
 21
0.0
  0
LINE
  8
001
 10
210.0
 20
0.0
 11
0.0
 21
0.0
  0
LINE
  8
001
 10
0.0
 20
0.0
 11
0.0
 21
297.0
  0
TEXT
  8
001
 10
91.858591
 20
121.114529
 40
3.6
  1
表面処理：　ニッケルメッキ　
 41
0.716667
  0
LINE
  8
001
 10
91.858591
 20
120.114529
 11
135.20259
 21
120.114529
  0
TEXT
  8
001
 10
160.329296
 20
16.123856
 40
3.6
  1
KM-0018H
 41
0.938182
  0
ENDSEC
  0
EOF
