  0
SECTION
  2
HEADER
  9
$ACADVER
  1
AC1003
  9
$INSBASE
 10
0.0
 20
0.0
  9
$EXTMIN
 10
0.0
 20
0.0
  9
$EXTMAX
 10
297.0
 20
210.0
  9
$LIMMIN
 10
0.0
 20
0.0
  9
$LIMMAX
 10
12.0
 20
9.0
  9
$VIEWCTR
 10
6.591288
 20
4.579184
  9
$VIEWSIZE
 40
9.158369
  9
$SNAPMODE
 70
     0
  9
$SNAPUNIT
 10
1.0
 20
1.0
  9
$SNAPBASE
 10
0.0
 20
0.0
  9
$SNAPANG
 50
0.0
  9
$SNAPSTYLE
 70
     0
  9
$SNAPISOPAIR
 70
     0
  9
$GRIDMODE
 70
     0
  9
$GRIDUNIT
 10
0.0
 20
0.0
  9
$ORTHOMODE
 70
     0
  9
$REGENMODE
 70
     1
  9
$FILLMODE
 70
     1
  9
$QTEXTMODE
 70
     0
  9
$DRAGMODE
 70
     2
  9
$LTSCALE
 40
4.95
  9
$OSMODE
 70
     0
  9
$ATTMODE
 70
     1
  9
$TEXTSIZE
 40
3.2
  9
$TRACEWID
 40
0.05
  9
$TEXTSTYLE
  7
STANDARD
  9
$CLAYER
  8
0
  9
$CELTYPE
  6
CONTINUOUS
  9
$CECOLOR
 62
   256
  9
$DIMSCALE
 40
1.0
  9
$DIMASZ
 40
0.18
  9
$DIMEXO
 40
0.0625
  9
$DIMDLI
 40
0.38
  9
$DIMRND
 40
0.0
  9
$DIMDLE
 40
0.0
  9
$DIMEXE
 40
0.18
  9
$DIMTP
 40
0.0
  9
$DIMTM
 40
0.0
  9
$DIMTXT
 40
0.18
  9
$DIMCEN
 40
0.09
  9
$DIMTSZ
 40
0.0
  9
$DIMTOL
 70
     0
  9
$DIMLIM
 70
     0
  9
$DIMTIH
 70
     1
  9
$DIMTOH
 70
     1
  9
$DIMSE1
 70
     0
  9
$DIMSE2
 70
     0
  9
$DIMTAD
 70
     0
  9
$DIMZIN
 70
     0
  9
$DIMBLK
  1

  9
$DIMASO
 70
     1
  9
$DIMSHO
 70
     1
  9
$DIMPOST
  1

  9
$DIMAPOST
  1

  9
$DIMALT
 70
     0
  9
$DIMALTD
 70
     2
  9
$DIMALTF
 40
25.4
  9
$DIMLFAC
 40
1.0
  9
$LUNITS
 70
     2
  9
$LUPREC
 70
     4
  9
$AXISMODE
 70
     0
  9
$AXISUNIT
 10
0.0
 20
0.0
  9
$SKETCHINC
 40
0.1
  9
$FILLETRAD
 40
0.0
  9
$AUNITS
 70
     0
  9
$AUPREC
 70
     0
  9
$MENU
  1
acad
  9
$ELEVATION
 40
0.0
  9
$THICKNESS
 40
0.0
  9
$VIEWDIR
 10
0.0
 20
0.0
 30
1.0
  9
$LIMCHECK
 70
     0
  9
$BLIPMODE
 70
     1
  9
$CHAMFERA
 40
0.0
  9
$CHAMFERB
 40
0.0
  9
$FASTZOOM
 70
     1
  9
$SKPOLY
 70
     0
  9
$TDCREATE
 40
0.000000000
  9
$TDUPDATE
 40
0.000000000
  9
$TDINDWG
 40
0.0000000000
  9
$TDUSRTIMER
 40
0.0000000000
  9
$USRTIMER
 70
     1
  9
$ANGBASE
 50
0.0
  9
$ANGDIR
 70
     0
  9
$PDMODE
 70
     0
  9
$PDSIZE
 40
0.0
  9
$PLINEWID
 40
0.0
  9
$COORDS
 70
     1
  9
$USERI1
 70
     0
  9
$USERI2
 70
     0
  9
$USERI3
 70
     0
  9
$USERI4
 70
     0
  9
$USERI5
 70
     0
  9
$USERR1
 40
0.0
  9
$USERR2
 40
0.0
  9
$USERR3
 40
0.0
  9
$USERR4
 40
0.0
  9
$USERR5
 40
0.0
  0
ENDSEC
  0
SECTION
  2
TABLES
  0
TABLE
  2
LTYPE
 70
     5
  0
LTYPE
  2
CONTINUOUS
 70
    64
  3
Solid line
 72
    65
 73
     0
 40
0.0
  0
LTYPE
  2
DASHED
 70
    64
  3
DASHED
 72
    65
 73
     2
 40
0.75
 49
0.5
 49
-0.25
  0
LTYPE
  2
HIDDEN
 70
    64
  3
HIDDEN
 72
    65
 73
     2
 40
0.375
 49
0.25
 49
-0.125
  0
LTYPE
  2
CENTER
 70
    64
  3
CENTER
 72
    65
 73
     4
 40
2.0
 49
1.25
 49
-0.25
 49
0.25
 49
-0.25
  0
LTYPE
  2
PHANTOM
 70
    64
  3
PHANTOM
 72
    65
 73
     6
 40
2.5
 49
1.25
 49
-0.25
 49
0.25
 49
-0.25
 49
0.25
 49
-0.25
  0
ENDTAB
  0
TABLE
  2
LAYER
 70
     2
  0
LAYER
  2
0
 70
     0
 62
     7
  6
CONTINUOUS
  0
LAYER
  2
001
 70
     0
 62
     7
  6
CONTINUOUS
  0
ENDTAB
  0
TABLE
  2
STYLE
 70
     2
  0
STYLE
  2
STANDARD
 70
     0
 40
0.0
 41
1.0
 50
0.0
 71
     0
 42
0.2
  3
TXT
  4
BIGFONT
  0
STYLE
  2
TATEGAKI
 70
     4
 40
1.0
 41
1.0
 50
0.0
 71
     0
 42
0.2
  3
TXT
  4
BIGFONT
  0
ENDTAB
  0
TABLE
  2
VIEW
 70
     0
  0
ENDTAB
  0
ENDSEC
  0
SECTION
  2
BLOCKS
  0
BLOCK
  8
001
  2
*D0
 70
     1
 10
0.0
 20
0.0
  0
LINE
  8
001
 10
137.511922
 20
127.263248
 11
137.511922
 21
146.171789
  0
LINE
  8
001
 10
162.511922
 20
128.263248
 11
162.511922
 21
146.171789
  0
LINE
  8
001
 10
137.511922
 20
145.171789
 11
162.511922
 21
145.171789
  0
POLYLINE
  8
001
 66
     1
  0
VERTEX
  8
001
 10
139.511922
 20
144.635891
  0
VERTEX
  8
001
 10
137.511922
 20
145.171789
  0
VERTEX
  8
001
 10
139.511922
 20
145.707688
  0
SEQEND
  8
001
  0
POLYLINE
  8
001
 66
     1
  0
VERTEX
  8
001
 10
160.511922
 20
145.707688
  0
VERTEX
  8
001
 10
162.511922
 20
145.171789
  0
VERTEX
  8
001
 10
160.511922
 20
144.635891
  0
SEQEND
  8
001
  0
TEXT
  8
001
 10
146.511922
 20
146.171789
 40
3.6
  1
25
  0
POINT
  8
001
 10
137.511922
 20
127.263248
  0
POINT
  8
001
 10
162.511922
 20
128.263248
  0
POINT
  8
001
 10
162.511922
 20
145.171789
  0
ENDBLK
  8
001
  0
BLOCK
  8
001
  2
*D1
 70
     1
 10
0.0
 20
0.0
  0
LINE
  8
001
 10
163.511922
 20
101.263248
 11
180.114317
 21
101.263248
  0
LINE
  8
001
 10
163.511922
 20
127.263248
 11
180.114317
 21
127.263248
  0
LINE
  8
001
 10
179.114317
 20
101.263248
 11
179.114317
 21
127.263248
  0
POLYLINE
  8
001
 66
     1
  0
VERTEX
  8
001
 10
179.650215
 20
103.263248
  0
VERTEX
  8
001
 10
179.114317
 20
101.263248
  0
VERTEX
  8
001
 10
178.578419
 20
103.263248
  0
SEQEND
  8
001
  0
POLYLINE
  8
001
 66
     1
  0
VERTEX
  8
001
 10
178.578419
 20
125.263248
  0
VERTEX
  8
001
 10
179.114317
 20
127.263248
  0
VERTEX
  8
001
 10
179.650215
 20
125.263248
  0
SEQEND
  8
001
  0
TEXT
  8
001
 10
178.114317
 20
108.963248
 40
3.6
  1
%%c26
 50
90.000003
  0
POINT
  8
001
 10
163.511922
 20
101.263248
  0
POINT
  8
001
 10
163.511922
 20
127.263248
  0
POINT
  8
001
 10
179.114317
 20
127.263248
  0
ENDBLK
  8
001
  0
BLOCK
  8
001
  2
DIM-1
 70
     0
 10
0.0
 20
0.0
  0
TEXT
  8
001
 10
46.736137
 20
140.489835
 40
3.6
  1
Ｍ６×Ｐ１．０
 41
0.833333
  0
POLYLINE
  8
001
 66
     1
  0
VERTEX
  8
001
 10
86.882892
 20
118.652297
  0
VERTEX
  8
001
 10
87.338211
 20
116.632427
  0
VERTEX
  8
001
 10
85.933959
 20
118.154026
  0
SEQEND
  8
001
  0
POLYLINE
  8
001
 66
     1
  0
VERTEX
  8
001
 10
87.338211
 20
116.632427
  0
VERTEX
  8
001
 10
75.336135
 20
139.489835
  0
VERTEX
  8
001
 10
43.136138
 20
139.489835
  0
SEQEND
  8
001
  0
ENDBLK
  8
001
  0
BLOCK
  8
001
  2
*D3
 70
     1
 10
0.0
 20
0.0
  0
LINE
  8
001
 10
145.511922
 20
110.263248
 11
145.511922
 21
85.77634
  0
LINE
  8
001
 10
137.511922
 20
101.263248
 11
137.511922
 21
85.77634
  0
LINE
  8
001
 10
145.511922
 20
86.77634
 11
137.511922
 21
86.77634
  0
POLYLINE
  8
001
 66
     1
  0
VERTEX
  8
001
 10
147.511922
 20
86.240441
  0
VERTEX
  8
001
 10
145.511922
 20
86.77634
  0
VERTEX
  8
001
 10
147.511922
 20
87.312238
  0
SEQEND
  8
001
  0
POLYLINE
  8
001
 66
     1
  0
VERTEX
  8
001
 10
135.511922
 20
87.312238
  0
VERTEX
  8
001
 10
137.511922
 20
86.77634
  0
VERTEX
  8
001
 10
135.511922
 20
86.240441
  0
SEQEND
  8
001
  0
TEXT
  8
001
 10
130.615922
 20
87.77634
 40
3.6
  1
8
 41
0.86
  0
POINT
  8
001
 10
145.511922
 20
110.263248
  0
POINT
  8
001
 10
137.511922
 20
101.263248
  0
POINT
  8
001
 10
137.511922
 20
86.77634
  0
LINE
  8
001
 10
145.511922
 20
86.77634
 11
148.511922
 21
86.77634
  0
LINE
  8
001
 10
137.511922
 20
86.77634
 11
129.615922
 21
86.77634
  0
ENDBLK
  8
001
  0
BLOCK
  8
001
  2
DIM-2
 70
     0
 10
0.0
 20
0.0
  0
TEXT
  8
001
 10
224.790959
 20
136.576877
 40
3.6
  1
アルミ
 41
0.833333
  0
POLYLINE
  8
001
 66
     1
 70
     1
 40
0.5
 41
0.5
  0
VERTEX
  8
001
 10
214.498887
 20
121.617395
 42
1.0
  0
VERTEX
  8
001
 10
213.998887
 20
121.617395
 42
1.0
  0
SEQEND
  8
001
  0
POLYLINE
  8
001
 66
     1
  0
VERTEX
  8
001
 10
214.248887
 20
121.617395
  0
VERTEX
  8
001
 10
221.190959
 20
135.576877
  0
VERTEX
  8
001
 10
238.990959
 20
135.576877
  0
SEQEND
  8
001
  0
ENDBLK
  8
001
  0
BLOCK
  8
001
  2
DIM-3
 70
     0
 10
0.0
 20
0.0
  0
TEXT
  8
001
 10
177.172238
 20
86.778733
 40
3.6
  1
吸着面
 41
0.716667
  0
POLYLINE
  8
001
 66
     1
  0
VERTEX
  8
001
 10
163.075195
 20
105.036209
  0
VERTEX
  8
001
 10
162.511922
 20
107.028672
  0
VERTEX
  8
001
 10
163.995963
 20
105.584785
  0
SEQEND
  8
001
  0
POLYLINE
  8
001
 66
     1
  0
VERTEX
  8
001
 10
162.511922
 20
107.028672
  0
VERTEX
  8
001
 10
175.172238
 20
85.778733
  0
VERTEX
  8
001
 10
188.460238
 20
85.778733
  0
SEQEND
  8
001
  0
ENDBLK
  8
001
  0
BLOCK
  8
001
  2
DIM-4
 70
     0
 10
0.0
 20
0.0
  0
TEXT
  8
001
 10
225.025154
 20
94.56497
 40
3.6
  1
軟鋼
 41
0.716667
  0
POLYLINE
  8
001
 66
     1
 70
     1
 40
0.5
 41
0.5
  0
VERTEX
  8
001
 10
213.217931
 20
112.219497
 42
1.0
  0
VERTEX
  8
001
 10
212.717931
 20
112.219497
 42
1.0
  0
SEQEND
  8
001
  0
POLYLINE
  8
001
 66
     1
 70
     1
 40
0.5
 41
0.5
  0
VERTEX
  8
001
 10
214.677851
 20
102.811127
 42
1.0
  0
VERTEX
  8
001
 10
214.177851
 20
102.811127
 42
1.0
  0
SEQEND
  8
001
  0
POLYLINE
  8
001
 66
     1
  0
VERTEX
  8
001
 10
212.967931
 20
112.219497
  0
VERTEX
  8
001
 10
223.025154
 20
93.56497
  0
VERTEX
  8
001
 10
233.217154
 20
93.56497
  0
SEQEND
  8
001
  0
POLYLINE
  8
001
 66
     1
  0
VERTEX
  8
001
 10
214.427851
 20
102.811127
  0
VERTEX
  8
001
 10
223.025154
 20
93.56497
  0
SEQEND
  8
001
  0
ENDBLK
  8
001
  0
ENDSEC
  0
SECTION
  2
ENTITIES
  0
DIMENSION
  8
001
  2
*D0
 10
162.511922
 20
145.171789
 11
146.511922
 21
146.171789
 13
137.511922
 23
127.263248
 14
162.511922
 24
128.263248
  0
DIMENSION
  8
001
  2
*D1
 10
179.114317
 20
127.263248
 11
178.114317
 21
108.963248
 13
163.511922
 23
101.263248
 14
163.511922
 24
127.263248
 50
90.0
  0
INSERT
  8
001
  6
BYBLOCK
 62
     0
  2
DIM-1
 10
0.0
 20
0.0
  0
DIMENSION
  8
001
  2
*D3
 10
137.511922
 20
86.77634
 11
130.615922
 21
87.77634
 13
145.511922
 23
110.263248
 14
137.511922
 24
101.263248
 50
180.0
  0
INSERT
  8
001
  6
BYBLOCK
 62
     0
  2
DIM-2
 10
0.0
 20
0.0
  0
INSERT
  8
001
  6
BYBLOCK
 62
     0
  2
DIM-3
 10
0.0
 20
0.0
  0
INSERT
  8
001
  6
BYBLOCK
 62
     0
  2
DIM-4
 10
0.0
 20
0.0
  0
LINE
  8
001
  6
CENTER
 10
168.569065
 20
114.263248
 11
130.426208
 21
114.263248
  0
CIRCLE
  8
001
 62
     3
 10
210.845256
 20
114.263248
 40
13.0
  0
LINE
  8
001
 62
     3
 10
162.511922
 20
101.763248
 11
162.511922
 21
126.763248
  0
LINE
  8
001
 62
     3
 10
137.511922
 20
102.263248
 11
137.511922
 21
126.263248
  0
LINE
  8
001
 62
     3
 10
162.011922
 20
127.263248
 11
138.511922
 21
127.263248
  0
LINE
  8
001
 62
     3
 10
162.011922
 20
101.263248
 11
138.511922
 21
101.263248
  0
LINE
  8
001
  6
CENTER
 10
191.845256
 20
114.263248
 11
229.845256
 21
114.263248
  0
LINE
  8
001
  6
CENTER
 10
210.845256
 20
95.263248
 11
210.845256
 21
133.263248
  0
LINE
  8
001
 62
     3
 10
137.511922
 20
126.263248
 11
138.511922
 21
127.263248
  0
LINE
  8
001
 62
     3
 10
137.511922
 20
102.263248
 11
138.511922
 21
101.263248
  0
LINE
  8
001
 10
138.511922
 20
101.263248
 11
138.511922
 21
127.263248
  0
LINE
  8
001
  6
DASHED
 10
147.511922
 20
111.863248
 11
147.511922
 21
116.663248
  0
CIRCLE
  8
001
 62
     3
 10
89.178589
 20
114.263248
 40
13.0
  0
LINE
  8
001
  6
CENTER
 10
108.178589
 20
114.263248
 11
70.178589
 21
114.263248
  0
LINE
  8
001
  6
CENTER
 10
89.178589
 20
95.263248
 11
89.178589
 21
133.263248
  0
CIRCLE
  8
001
 10
89.178589
 20
114.263248
 40
2.4
  0
CIRCLE
  8
001
 10
89.178589
 20
114.263248
 40
3.0
  0
CIRCLE
  8
001
 10
89.178589
 20
114.263248
 40
12.0
  0
CIRCLE
  8
001
 10
210.845256
 20
114.263248
 40
11.0
  0
CIRCLE
  8
001
 10
210.845256
 20
114.263248
 40
5.5
  0
LINE
  8
001
  6
DASHED
 10
145.511922
 20
117.263248
 11
137.511922
 21
117.263248
  0
LINE
  8
001
  6
DASHED
 10
147.511922
 20
116.663248
 11
137.511922
 21
116.663248
  0
LINE
  8
001
  6
DASHED
 10
147.511922
 20
111.863248
 11
137.511922
 21
111.863248
  0
LINE
  8
001
  6
DASHED
 10
145.511922
 20
111.263248
 11
137.511922
 21
111.263248
  0
LINE
  8
001
  6
DASHED
 10
145.511922
 20
117.263248
 11
145.511922
 21
111.263248
  0
LINE
  8
001
  6
DASHED
 10
146.111922
 20
116.663248
 11
146.111922
 21
111.863248
  0
LINE
  8
001
  6
DASHED
 10
147.511922
 20
111.863248
 11
147.511922
 21
116.663248
  0
LINE
  8
001
  6
DASHED
 10
147.511922
 20
111.863248
 11
148.897563
 21
114.263248
  0
LINE
  8
001
  6
DASHED
 10
148.897563
 20
114.263248
 11
147.511922
 21
116.663248
  0
LINE
  8
001
  6
DASHED
 10
146.111922
 20
116.663248
 11
145.511922
 21
117.263248
  0
LINE
  8
001
  6
DASHED
 10
146.111922
 20
111.863248
 11
145.511922
 21
111.263248
  0
LINE
  8
001
 62
     3
 10
162.011922
 20
127.263248
 11
162.511922
 21
126.763248
  0
LINE
  8
001
 62
     3
 10
162.511922
 20
101.763248
 11
162.011922
 21
101.263248
  0
LINE
  8
001
 10
0.0
 20
210.0
 11
0.0
 21
0.0
  0
LINE
  8
001
 10
0.0
 20
0.0
 11
297.0
 21
0.0
  0
LINE
  8
001
 10
297.0
 20
0.0
 11
297.0
 21
210.0
  0
LINE
  8
001
 10
297.0
 20
210.0
 11
0.0
 21
210.0
  0
LINE
  8
001
  6
DASHED
 10
162.511922
 20
119.763248
 11
157.511922
 21
119.763248
  0
LINE
  8
001
  6
DASHED
 10
162.511922
 20
125.263248
 11
157.511922
 21
125.263248
  0
LINE
  8
001
  6
DASHED
 10
162.511922
 20
108.763248
 11
157.511922
 21
108.763248
  0
LINE
  8
001
  6
DASHED
 10
162.511922
 20
103.263248
 11
157.511922
 21
103.263248
  0
TEXT
  8
001
 10
116.999329
 20
63.301558
 40
3.6
  1
表面処理：　マルーン（赤茶チヂミ塗装）
 41
0.716667
  0
LINE
  8
001
 10
116.999329
 20
62.301558
 11
175.823328
 21
62.301558
  0
TEXT
  8
001
 10
254.307197
 20
13.106464
 40
3.6
  1
KM-025C
 41
0.880976
  0
ENDSEC
  0
EOF
