  0
SECTION
  2
HEADER
  9
$ACADVER
  1
AC1003
  9
$INSBASE
 10
0.0
 20
0.0
  9
$EXTMIN
 10
0.0
 20
0.0
  9
$EXTMAX
 10
297.0
 20
210.0
  9
$LIMMIN
 10
0.0
 20
0.0
  9
$LIMMAX
 10
12.0
 20
9.0
  9
$VIEWCTR
 10
6.591288
 20
4.579184
  9
$VIEWSIZE
 40
9.158369
  9
$SNAPMODE
 70
     0
  9
$SNAPUNIT
 10
1.0
 20
1.0
  9
$SNAPBASE
 10
0.0
 20
0.0
  9
$SNAPANG
 50
0.0
  9
$SNAPSTYLE
 70
     0
  9
$SNAPISOPAIR
 70
     0
  9
$GRIDMODE
 70
     0
  9
$GRIDUNIT
 10
0.0
 20
0.0
  9
$ORTHOMODE
 70
     0
  9
$REGENMODE
 70
     1
  9
$FILLMODE
 70
     1
  9
$QTEXTMODE
 70
     0
  9
$DRAGMODE
 70
     2
  9
$LTSCALE
 40
4.95
  9
$OSMODE
 70
     0
  9
$ATTMODE
 70
     1
  9
$TEXTSIZE
 40
3.2
  9
$TRACEWID
 40
0.05
  9
$TEXTSTYLE
  7
STANDARD
  9
$CLAYER
  8
0
  9
$CELTYPE
  6
CONTINUOUS
  9
$CECOLOR
 62
   256
  9
$DIMSCALE
 40
1.0
  9
$DIMASZ
 40
0.18
  9
$DIMEXO
 40
0.0625
  9
$DIMDLI
 40
0.38
  9
$DIMRND
 40
0.0
  9
$DIMDLE
 40
0.0
  9
$DIMEXE
 40
0.18
  9
$DIMTP
 40
0.0
  9
$DIMTM
 40
0.0
  9
$DIMTXT
 40
0.18
  9
$DIMCEN
 40
0.09
  9
$DIMTSZ
 40
0.0
  9
$DIMTOL
 70
     0
  9
$DIMLIM
 70
     0
  9
$DIMTIH
 70
     1
  9
$DIMTOH
 70
     1
  9
$DIMSE1
 70
     0
  9
$DIMSE2
 70
     0
  9
$DIMTAD
 70
     0
  9
$DIMZIN
 70
     0
  9
$DIMBLK
  1

  9
$DIMASO
 70
     1
  9
$DIMSHO
 70
     1
  9
$DIMPOST
  1

  9
$DIMAPOST
  1

  9
$DIMALT
 70
     0
  9
$DIMALTD
 70
     2
  9
$DIMALTF
 40
25.4
  9
$DIMLFAC
 40
1.0
  9
$LUNITS
 70
     2
  9
$LUPREC
 70
     4
  9
$AXISMODE
 70
     0
  9
$AXISUNIT
 10
0.0
 20
0.0
  9
$SKETCHINC
 40
0.1
  9
$FILLETRAD
 40
0.0
  9
$AUNITS
 70
     0
  9
$AUPREC
 70
     0
  9
$MENU
  1
acad
  9
$ELEVATION
 40
0.0
  9
$THICKNESS
 40
0.0
  9
$VIEWDIR
 10
0.0
 20
0.0
 30
1.0
  9
$LIMCHECK
 70
     0
  9
$BLIPMODE
 70
     1
  9
$CHAMFERA
 40
0.0
  9
$CHAMFERB
 40
0.0
  9
$FASTZOOM
 70
     1
  9
$SKPOLY
 70
     0
  9
$TDCREATE
 40
0.000000000
  9
$TDUPDATE
 40
0.000000000
  9
$TDINDWG
 40
0.0000000000
  9
$TDUSRTIMER
 40
0.0000000000
  9
$USRTIMER
 70
     1
  9
$ANGBASE
 50
0.0
  9
$ANGDIR
 70
     0
  9
$PDMODE
 70
     0
  9
$PDSIZE
 40
0.0
  9
$PLINEWID
 40
0.0
  9
$COORDS
 70
     1
  9
$USERI1
 70
     0
  9
$USERI2
 70
     0
  9
$USERI3
 70
     0
  9
$USERI4
 70
     0
  9
$USERI5
 70
     0
  9
$USERR1
 40
0.0
  9
$USERR2
 40
0.0
  9
$USERR3
 40
0.0
  9
$USERR4
 40
0.0
  9
$USERR5
 40
0.0
  0
ENDSEC
  0
SECTION
  2
TABLES
  0
TABLE
  2
LTYPE
 70
     5
  0
LTYPE
  2
CONTINUOUS
 70
    64
  3
Solid line
 72
    65
 73
     0
 40
0.0
  0
LTYPE
  2
DASHED
 70
    64
  3
DASHED
 72
    65
 73
     2
 40
0.75
 49
0.5
 49
-0.25
  0
LTYPE
  2
HIDDEN
 70
    64
  3
HIDDEN
 72
    65
 73
     2
 40
0.375
 49
0.25
 49
-0.125
  0
LTYPE
  2
CENTER
 70
    64
  3
CENTER
 72
    65
 73
     4
 40
2.0
 49
1.25
 49
-0.25
 49
0.25
 49
-0.25
  0
LTYPE
  2
PHANTOM
 70
    64
  3
PHANTOM
 72
    65
 73
     6
 40
2.5
 49
1.25
 49
-0.25
 49
0.25
 49
-0.25
 49
0.25
 49
-0.25
  0
ENDTAB
  0
TABLE
  2
LAYER
 70
     2
  0
LAYER
  2
0
 70
     0
 62
     7
  6
CONTINUOUS
  0
LAYER
  2
001
 70
     0
 62
     7
  6
CONTINUOUS
  0
ENDTAB
  0
TABLE
  2
STYLE
 70
     2
  0
STYLE
  2
STANDARD
 70
     0
 40
0.0
 41
1.0
 50
0.0
 71
     0
 42
0.2
  3
TXT
  4
BIGFONT
  0
STYLE
  2
TATEGAKI
 70
     4
 40
1.0
 41
1.0
 50
0.0
 71
     0
 42
0.2
  3
TXT
  4
BIGFONT
  0
ENDTAB
  0
TABLE
  2
VIEW
 70
     0
  0
ENDTAB
  0
ENDSEC
  0
SECTION
  2
BLOCKS
  0
BLOCK
  8
001
  2
DIM-1
 70
     0
 10
0.0
 20
0.0
  0
TEXT
  8
001
 10
168.558987
 20
70.856222
 40
3.6
  1
吸着面
 41
0.716667
  0
POLYLINE
  8
001
 66
     1
  0
VERTEX
  8
001
 10
154.461944
 20
89.113697
  0
VERTEX
  8
001
 10
153.898671
 20
91.10616
  0
VERTEX
  8
001
 10
155.382712
 20
89.662273
  0
SEQEND
  8
001
  0
POLYLINE
  8
001
 66
     1
  0
VERTEX
  8
001
 10
153.898671
 20
91.10616
  0
VERTEX
  8
001
 10
166.558987
 20
69.856222
  0
VERTEX
  8
001
 10
179.846987
 20
69.856222
  0
SEQEND
  8
001
  0
ENDBLK
  8
001
  0
BLOCK
  8
001
  2
*D1
 70
     1
 10
0.0
 20
0.0
  0
LINE
  8
001
 10
212.845256
 20
144.263248
 11
212.845256
 21
163.171789
  0
LINE
  8
001
 10
238.845256
 20
144.263248
 11
238.845256
 21
163.171789
  0
LINE
  8
001
 10
212.845256
 20
162.171789
 11
238.845256
 21
162.171789
  0
POLYLINE
  8
001
 66
     1
  0
VERTEX
  8
001
 10
214.845256
 20
161.635891
  0
VERTEX
  8
001
 10
212.845256
 20
162.171789
  0
VERTEX
  8
001
 10
214.845256
 20
162.707688
  0
SEQEND
  8
001
  0
POLYLINE
  8
001
 66
     1
  0
VERTEX
  8
001
 10
236.845256
 20
162.707688
  0
VERTEX
  8
001
 10
238.845256
 20
162.171789
  0
VERTEX
  8
001
 10
236.845256
 20
161.635891
  0
SEQEND
  8
001
  0
TEXT
  8
001
 10
222.345256
 20
163.171789
 40
3.6
  1
26
  0
POINT
  8
001
 10
212.845256
 20
144.263248
  0
POINT
  8
001
 10
238.845256
 20
144.263248
  0
POINT
  8
001
 10
238.845256
 20
162.171789
  0
ENDBLK
  8
001
  0
BLOCK
  8
001
  2
*D2
 70
     1
 10
0.0
 20
0.0
  0
LINE
  8
001
 10
238.845256
 20
84.263248
 11
263.009461
 21
84.263248
  0
LINE
  8
001
 10
238.845256
 20
144.263248
 11
263.009461
 21
144.263248
  0
LINE
  8
001
 10
262.009461
 20
84.263248
 11
262.009461
 21
144.263248
  0
POLYLINE
  8
001
 66
     1
  0
VERTEX
  8
001
 10
262.54536
 20
86.263248
  0
VERTEX
  8
001
 10
262.009461
 20
84.263248
  0
VERTEX
  8
001
 10
261.473563
 20
86.263248
  0
SEQEND
  8
001
  0
POLYLINE
  8
001
 66
     1
  0
VERTEX
  8
001
 10
261.473563
 20
142.263248
  0
VERTEX
  8
001
 10
262.009461
 20
144.263248
  0
VERTEX
  8
001
 10
262.54536
 20
142.263248
  0
SEQEND
  8
001
  0
TEXT
  8
001
 10
261.009461
 20
110.763248
 40
3.6
  1
60
 50
90.000003
 41
1.090909
  0
POINT
  8
001
 10
238.845256
 20
84.263248
  0
POINT
  8
001
 10
238.845256
 20
144.263248
  0
POINT
  8
001
 10
262.009461
 20
144.263248
  0
ENDBLK
  8
001
  0
BLOCK
  8
001
  2
*D3
 70
     1
 10
0.0
 20
0.0
  0
LINE
  8
001
 10
128.898671
 20
144.263248
 11
128.898671
 21
163.171789
  0
LINE
  8
001
 10
153.898671
 20
145.263248
 11
153.898671
 21
163.171789
  0
LINE
  8
001
 10
128.898671
 20
162.171789
 11
153.898671
 21
162.171789
  0
POLYLINE
  8
001
 66
     1
  0
VERTEX
  8
001
 10
130.898671
 20
161.635891
  0
VERTEX
  8
001
 10
128.898671
 20
162.171789
  0
VERTEX
  8
001
 10
130.898671
 20
162.707688
  0
SEQEND
  8
001
  0
POLYLINE
  8
001
 66
     1
  0
VERTEX
  8
001
 10
151.898671
 20
162.707688
  0
VERTEX
  8
001
 10
153.898671
 20
162.171789
  0
VERTEX
  8
001
 10
151.898671
 20
161.635891
  0
SEQEND
  8
001
  0
TEXT
  8
001
 10
137.898671
 20
163.171789
 40
3.6
  1
25
  0
POINT
  8
001
 10
128.898671
 20
144.263248
  0
POINT
  8
001
 10
153.898671
 20
145.263248
  0
POINT
  8
001
 10
153.898671
 20
162.171789
  0
ENDBLK
  8
001
  0
BLOCK
  8
001
  2
*D4
 70
     1
 10
0.0
 20
0.0
  0
LINE
  8
001
 10
138.898671
 20
110.263248
 11
138.898671
 21
70.062965
  0
LINE
  8
001
 10
128.898671
 20
84.263248
 11
128.898671
 21
70.062965
  0
LINE
  8
001
 10
138.898671
 20
71.062965
 11
128.898671
 21
71.062965
  0
POLYLINE
  8
001
 66
     1
  0
VERTEX
  8
001
 10
136.898671
 20
71.598863
  0
VERTEX
  8
001
 10
138.898671
 20
71.062965
  0
VERTEX
  8
001
 10
136.898671
 20
70.527067
  0
SEQEND
  8
001
  0
POLYLINE
  8
001
 66
     1
  0
VERTEX
  8
001
 10
130.898671
 20
70.527067
  0
VERTEX
  8
001
 10
128.898671
 20
71.062965
  0
VERTEX
  8
001
 10
130.898671
 20
71.598863
  0
SEQEND
  8
001
  0
TEXT
  8
001
 10
130.802671
 20
72.062965
 40
3.6
  1
10
 41
1.146667
  0
POINT
  8
001
 10
138.898671
 20
110.263248
  0
POINT
  8
001
 10
128.898671
 20
84.263248
  0
POINT
  8
001
 10
128.898671
 20
71.062965
  0
ENDBLK
  8
001
  0
BLOCK
  8
001
  2
DIM-2
 70
     0
 10
0.0
 20
0.0
  0
TEXT
  8
001
 10
19.14369
 20
159.965331
 40
3.6
  1
Ｍ６×Ｐ１．０
 41
0.833333
  0
POLYLINE
  8
001
 66
     1
  0
VERTEX
  8
001
 10
62.355642
 20
118.821339
  0
VERTEX
  8
001
 10
62.510247
 20
116.756567
  0
VERTEX
  8
001
 10
61.343969
 20
118.467409
  0
SEQEND
  8
001
  0
POLYLINE
  8
001
 66
     1
  0
VERTEX
  8
001
 10
62.510247
 20
116.756567
  0
VERTEX
  8
001
 10
47.743688
 20
158.965331
  0
VERTEX
  8
001
 10
15.543691
 20
158.965331
  0
SEQEND
  8
001
  0
ENDBLK
  8
001
  0
BLOCK
  8
001
  2
DIM-3
 70
     0
 10
0.0
 20
0.0
  0
TEXT
  8
001
 10
243.228535
 20
73.096223
 40
3.6
  1
軟鋼
 41
0.716667
  0
POLYLINE
  8
001
 66
     1
 70
     1
 40
0.5
 41
0.5
  0
VERTEX
  8
001
 10
228.462494
 20
95.963443
 42
1.0
  0
VERTEX
  8
001
 10
227.962494
 20
95.963443
 42
1.0
  0
SEQEND
  8
001
  0
POLYLINE
  8
001
 66
     1
 70
     1
 40
0.5
 41
0.5
  0
VERTEX
  8
001
 10
229.677911
 20
85.885781
 42
1.0
  0
VERTEX
  8
001
 10
229.177911
 20
85.885781
 42
1.0
  0
SEQEND
  8
001
  0
POLYLINE
  8
001
 66
     1
  0
VERTEX
  8
001
 10
228.212494
 20
95.963443
  0
VERTEX
  8
001
 10
241.228535
 20
72.096223
  0
VERTEX
  8
001
 10
251.420535
 20
72.096223
  0
SEQEND
  8
001
  0
POLYLINE
  8
001
 66
     1
  0
VERTEX
  8
001
 10
229.427911
 20
85.885781
  0
VERTEX
  8
001
 10
241.228535
 20
72.096223
  0
SEQEND
  8
001
  0
ENDBLK
  8
001
  0
BLOCK
  8
001
  2
DIM-4
 70
     0
 10
0.0
 20
0.0
  0
TEXT
  8
001
 10
248.129724
 20
159.411771
 40
3.6
  1
アルミ
 41
0.833333
  0
POLYLINE
  8
001
 66
     1
 70
     1
 40
0.5
 41
0.5
  0
VERTEX
  8
001
 10
232.00234
 20
135.940802
 42
1.0
  0
VERTEX
  8
001
 10
231.50234
 20
135.940802
 42
1.0
  0
SEQEND
  8
001
  0
POLYLINE
  8
001
 66
     1
  0
VERTEX
  8
001
 10
231.75234
 20
135.940802
  0
VERTEX
  8
001
 10
244.529724
 20
158.411771
  0
VERTEX
  8
001
 10
262.329723
 20
158.411771
  0
SEQEND
  8
001
  0
ENDBLK
  8
001
  0
BLOCK
  8
001
  2
DIM-5
 70
     0
 10
0.0
 20
0.0
  0
TEXT
  8
001
 10
199.795065
 20
156.428697
 40
3.6
  1
軟鋼
 41
0.716667
  0
POLYLINE
  8
001
 66
     1
 70
     1
 40
0.5
 41
0.5
  0
VERTEX
  8
001
 10
223.711762
 20
132.12343
 42
1.0
  0
VERTEX
  8
001
 10
223.211762
 20
132.12343
 42
1.0
  0
SEQEND
  8
001
  0
POLYLINE
  8
001
 66
     1
  0
VERTEX
  8
001
 10
223.461762
 20
132.12343
  0
VERTEX
  8
001
 10
207.987065
 20
155.428697
  0
VERTEX
  8
001
 10
197.795065
 20
155.428697
  0
SEQEND
  8
001
  0
ENDBLK
  8
001
  0
ENDSEC
  0
SECTION
  2
ENTITIES
  0
INSERT
  8
001
  6
BYBLOCK
 62
     0
  2
DIM-1
 10
0.0
 20
0.0
  0
DIMENSION
  8
001
  2
*D1
 10
238.845256
 20
162.171789
 11
222.345256
 21
163.171789
 13
212.845256
 23
144.263248
 14
238.845256
 24
144.263248
  0
DIMENSION
  8
001
  2
*D2
 10
262.009461
 20
144.263248
 11
261.009461
 21
110.763248
 13
238.845256
 23
84.263248
 14
238.845256
 24
144.263248
 50
90.0
  0
DIMENSION
  8
001
  2
*D3
 10
153.898671
 20
162.171789
 11
137.898671
 21
163.171789
 13
128.898671
 23
144.263248
 14
153.898671
 24
145.263248
  0
DIMENSION
  8
001
  2
*D4
 10
128.898671
 20
71.062965
 11
130.802671
 21
72.062965
 13
138.898671
 23
110.263248
 14
128.898671
 24
84.263248
 50
180.0
  0
INSERT
  8
001
  6
BYBLOCK
 62
     0
  2
DIM-2
 10
0.0
 20
0.0
  0
INSERT
  8
001
  6
BYBLOCK
 62
     0
  2
DIM-3
 10
0.0
 20
0.0
  0
INSERT
  8
001
  6
BYBLOCK
 62
     0
  2
DIM-4
 10
0.0
 20
0.0
  0
INSERT
  8
001
  6
BYBLOCK
 62
     0
  2
DIM-5
 10
0.0
 20
0.0
  0
LINE
  8
001
 10
0.0
 20
210.0
 11
0.0
 21
0.0
  0
LINE
  8
001
 10
0.0
 20
0.0
 11
297.0
 21
0.0
  0
LINE
  8
001
 10
297.0
 20
0.0
 11
297.0
 21
210.0
  0
LINE
  8
001
 10
297.0
 20
210.0
 11
0.0
 21
210.0
  0
TEXT
  8
001
 10
112.521333
 20
37.976395
 40
3.6
  1
表面処理：　マルーン（赤茶チヂミ塗装）
 41
0.716667
  0
LINE
  8
001
 10
112.521333
 20
36.976395
 11
171.345332
 21
36.976395
  0
LINE
  8
001
  6
CENTER
 10
225.845256
 20
79.263248
 11
225.845256
 21
149.499998
  0
LINE
  8
001
  6
CENTER
 10
244.845256
 20
98.263248
 11
206.845256
 21
98.263248
  0
CIRCLE
  8
001
 10
225.845256
 20
98.263248
 40
11.0
  0
CIRCLE
  8
001
 10
225.845256
 20
98.263248
 40
5.5
  0
LINE
  8
001
  6
CENTER
 10
244.845256
 20
130.263248
 11
206.845256
 21
130.263248
  0
CIRCLE
  8
001
 10
225.845256
 20
130.263248
 40
11.0
  0
CIRCLE
  8
001
 10
225.845256
 20
130.263248
 40
5.5
  0
LINE
  8
001
  6
CENTER
 10
244.845256
 20
114.263248
 11
206.845256
 21
114.263248
  0
LINE
  8
001
 62
     3
 10
212.845256
 20
143.263248
 11
212.845256
 21
85.263248
  0
LINE
  8
001
 62
     3
 10
213.845256
 20
144.263248
 11
237.845256
 21
144.263248
  0
LINE
  8
001
 62
     3
 10
238.845256
 20
143.263248
 11
238.845256
 21
85.263248
  0
LINE
  8
001
 62
     3
 10
237.845256
 20
84.263248
 11
213.845256
 21
84.263248
  0
LINE
  8
001
 62
     3
 10
212.845256
 20
85.263248
 11
213.845256
 21
84.263248
  0
LINE
  8
001
 62
     3
 10
237.845256
 20
84.263248
 11
238.845256
 21
85.263248
  0
LINE
  8
001
 62
     3
 10
238.845256
 20
143.263248
 11
237.845256
 21
144.263248
  0
LINE
  8
001
 62
     3
 10
213.845256
 20
144.263248
 11
212.845256
 21
143.263248
  0
LINE
  8
001
  6
CENTER
 10
159.955814
 20
114.263248
 11
121.812957
 21
114.263248
  0
LINE
  8
001
 62
     3
 10
153.898671
 20
84.463248
 11
153.898671
 21
144.063248
  0
LINE
  8
001
 62
     3
 10
128.898671
 20
85.263248
 11
128.898671
 21
143.263248
  0
LINE
  8
001
 62
     3
 10
153.698671
 20
144.263248
 11
129.898671
 21
144.263248
  0
LINE
  8
001
 62
     3
 10
153.698671
 20
84.263248
 11
129.898671
 21
84.263248
  0
LINE
  8
001
 62
     3
 10
128.898671
 20
143.263248
 11
129.898671
 21
144.263248
  0
LINE
  8
001
 62
     3
 10
128.898671
 20
85.263248
 11
129.898671
 21
84.263248
  0
LINE
  8
001
 10
129.898671
 20
84.263248
 11
129.898671
 21
144.263248
  0
LINE
  8
001
 62
     3
 10
153.698671
 20
144.263248
 11
153.898671
 21
144.063248
  0
LINE
  8
001
 62
     3
 10
153.898671
 20
84.463248
 11
153.698671
 21
84.263248
  0
LINE
  8
001
  6
DASHED
 10
138.898671
 20
117.263248
 11
128.898671
 21
117.263248
  0
LINE
  8
001
  6
DASHED
 10
140.898671
 20
116.663248
 11
128.898671
 21
116.663248
  0
LINE
  8
001
  6
DASHED
 10
140.898671
 20
111.863248
 11
128.898671
 21
111.863248
  0
LINE
  8
001
  6
DASHED
 10
138.898671
 20
111.263248
 11
128.898671
 21
111.263248
  0
LINE
  8
001
  6
DASHED
 10
138.898671
 20
117.263248
 11
138.898671
 21
111.263248
  0
LINE
  8
001
  6
DASHED
 10
139.498671
 20
116.663248
 11
139.498671
 21
111.863248
  0
LINE
  8
001
  6
DASHED
 10
140.898671
 20
111.863248
 11
140.898671
 21
116.663248
  0
LINE
  8
001
  6
DASHED
 10
140.898671
 20
111.863248
 11
142.284312
 21
114.263248
  0
LINE
  8
001
  6
DASHED
 10
142.284312
 20
114.263248
 11
140.898671
 21
116.663248
  0
LINE
  8
001
  6
DASHED
 10
139.498671
 20
116.663248
 11
138.898671
 21
117.263248
  0
LINE
  8
001
  6
DASHED
 10
139.498671
 20
111.863248
 11
138.898671
 21
111.263248
  0
LINE
  8
001
  6
CENTER
 10
64.178589
 20
150.213028
 11
64.178589
 21
79.511711
  0
LINE
  8
001
  6
CENTER
 10
83.178589
 20
114.263248
 11
45.178589
 21
114.263248
  0
LINE
  8
001
 62
     3
 10
51.178589
 20
85.263248
 11
51.178589
 21
143.263248
  0
LINE
  8
001
 62
     3
 10
77.178589
 20
85.263248
 11
77.178589
 21
143.263248
  0
LINE
  8
001
 62
     3
 10
76.178589
 20
144.263248
 11
52.178589
 21
144.263248
  0
LINE
  8
001
 62
     3
 10
52.178589
 20
84.263248
 11
76.178589
 21
84.263248
  0
CIRCLE
  8
001
 10
64.178589
 20
114.263248
 40
3.0
  0
CIRCLE
  8
001
 10
64.178589
 20
114.263248
 40
2.4
  0
LINE
  8
001
 62
     3
 10
52.178589
 20
144.263248
 11
51.178589
 21
143.263248
  0
LINE
  8
001
 62
     3
 10
76.178589
 20
144.263248
 11
77.178589
 21
143.263248
  0
LINE
  8
001
 62
     3
 10
77.178589
 20
85.263248
 11
76.178589
 21
84.263248
  0
LINE
  8
001
 62
     3
 10
52.178589
 20
84.263248
 11
51.178589
 21
85.263248
  0
LINE
  8
001
  6
DASHED
 10
153.898671
 20
135.763248
 11
148.898671
 21
135.763248
  0
LINE
  8
001
  6
DASHED
 10
153.898671
 20
141.263248
 11
148.898671
 21
141.263248
  0
LINE
  8
001
  6
DASHED
 10
153.898671
 20
124.763248
 11
148.898671
 21
124.763248
  0
LINE
  8
001
  6
DASHED
 10
153.898671
 20
119.263248
 11
148.898671
 21
119.263248
  0
LINE
  8
001
  6
DASHED
 10
153.898671
 20
92.763248
 11
148.898671
 21
92.763248
  0
LINE
  8
001
  6
DASHED
 10
153.898671
 20
87.263248
 11
148.898671
 21
87.263248
  0
LINE
  8
001
  6
DASHED
 10
153.898671
 20
103.763248
 11
148.898671
 21
103.763248
  0
LINE
  8
001
  6
DASHED
 10
153.898671
 20
109.263248
 11
148.898671
 21
109.263248
  0
TEXT
  8
001
 10
254.307197
 20
13.106464
 40
3.6
  1
KM-06S
 41
0.884571
  0
ENDSEC
  0
EOF
