  0
SECTION
  2
HEADER
  9
$ACADVER
  1
AC1003
  9
$INSBASE
 10
0.0
 20
0.0
  9
$EXTMIN
 10
0.0
 20
0.0
  9
$EXTMAX
 10
210.0
 20
297.0
  9
$LIMMIN
 10
0.0
 20
0.0
  9
$LIMMAX
 10
12.0
 20
9.0
  9
$VIEWCTR
 10
6.591288
 20
4.579184
  9
$VIEWSIZE
 40
9.158369
  9
$SNAPMODE
 70
     0
  9
$SNAPUNIT
 10
1.0
 20
1.0
  9
$SNAPBASE
 10
0.0
 20
0.0
  9
$SNAPANG
 50
0.0
  9
$SNAPSTYLE
 70
     0
  9
$SNAPISOPAIR
 70
     0
  9
$GRIDMODE
 70
     0
  9
$GRIDUNIT
 10
0.0
 20
0.0
  9
$ORTHOMODE
 70
     0
  9
$REGENMODE
 70
     1
  9
$FILLMODE
 70
     1
  9
$QTEXTMODE
 70
     0
  9
$DRAGMODE
 70
     2
  9
$LTSCALE
 40
4.95
  9
$OSMODE
 70
     0
  9
$ATTMODE
 70
     1
  9
$TEXTSIZE
 40
3.2
  9
$TRACEWID
 40
0.05
  9
$TEXTSTYLE
  7
STANDARD
  9
$CLAYER
  8
0
  9
$CELTYPE
  6
CONTINUOUS
  9
$CECOLOR
 62
   256
  9
$DIMSCALE
 40
1.0
  9
$DIMASZ
 40
0.18
  9
$DIMEXO
 40
0.0625
  9
$DIMDLI
 40
0.38
  9
$DIMRND
 40
0.0
  9
$DIMDLE
 40
0.0
  9
$DIMEXE
 40
0.18
  9
$DIMTP
 40
0.0
  9
$DIMTM
 40
0.0
  9
$DIMTXT
 40
0.18
  9
$DIMCEN
 40
0.09
  9
$DIMTSZ
 40
0.0
  9
$DIMTOL
 70
     0
  9
$DIMLIM
 70
     0
  9
$DIMTIH
 70
     1
  9
$DIMTOH
 70
     1
  9
$DIMSE1
 70
     0
  9
$DIMSE2
 70
     0
  9
$DIMTAD
 70
     0
  9
$DIMZIN
 70
     0
  9
$DIMBLK
  1

  9
$DIMASO
 70
     1
  9
$DIMSHO
 70
     1
  9
$DIMPOST
  1

  9
$DIMAPOST
  1

  9
$DIMALT
 70
     0
  9
$DIMALTD
 70
     2
  9
$DIMALTF
 40
25.4
  9
$DIMLFAC
 40
1.0
  9
$LUNITS
 70
     2
  9
$LUPREC
 70
     4
  9
$AXISMODE
 70
     0
  9
$AXISUNIT
 10
0.0
 20
0.0
  9
$SKETCHINC
 40
0.1
  9
$FILLETRAD
 40
0.0
  9
$AUNITS
 70
     0
  9
$AUPREC
 70
     0
  9
$MENU
  1
acad
  9
$ELEVATION
 40
0.0
  9
$THICKNESS
 40
0.0
  9
$VIEWDIR
 10
0.0
 20
0.0
 30
1.0
  9
$LIMCHECK
 70
     0
  9
$BLIPMODE
 70
     1
  9
$CHAMFERA
 40
0.0
  9
$CHAMFERB
 40
0.0
  9
$FASTZOOM
 70
     1
  9
$SKPOLY
 70
     0
  9
$TDCREATE
 40
0.000000000
  9
$TDUPDATE
 40
0.000000000
  9
$TDINDWG
 40
0.0000000000
  9
$TDUSRTIMER
 40
0.0000000000
  9
$USRTIMER
 70
     1
  9
$ANGBASE
 50
0.0
  9
$ANGDIR
 70
     0
  9
$PDMODE
 70
     0
  9
$PDSIZE
 40
0.0
  9
$PLINEWID
 40
0.0
  9
$COORDS
 70
     1
  9
$USERI1
 70
     0
  9
$USERI2
 70
     0
  9
$USERI3
 70
     0
  9
$USERI4
 70
     0
  9
$USERI5
 70
     0
  9
$USERR1
 40
0.0
  9
$USERR2
 40
0.0
  9
$USERR3
 40
0.0
  9
$USERR4
 40
0.0
  9
$USERR5
 40
0.0
  0
ENDSEC
  0
SECTION
  2
TABLES
  0
TABLE
  2
LTYPE
 70
     5
  0
LTYPE
  2
CONTINUOUS
 70
    64
  3
Solid line
 72
    65
 73
     0
 40
0.0
  0
LTYPE
  2
DASHED
 70
    64
  3
DASHED
 72
    65
 73
     2
 40
0.75
 49
0.5
 49
-0.25
  0
LTYPE
  2
HIDDEN
 70
    64
  3
HIDDEN
 72
    65
 73
     2
 40
0.375
 49
0.25
 49
-0.125
  0
LTYPE
  2
CENTER
 70
    64
  3
CENTER
 72
    65
 73
     4
 40
2.0
 49
1.25
 49
-0.25
 49
0.25
 49
-0.25
  0
LTYPE
  2
PHANTOM
 70
    64
  3
PHANTOM
 72
    65
 73
     6
 40
2.5
 49
1.25
 49
-0.25
 49
0.25
 49
-0.25
 49
0.25
 49
-0.25
  0
ENDTAB
  0
TABLE
  2
LAYER
 70
     2
  0
LAYER
  2
0
 70
     0
 62
     7
  6
CONTINUOUS
  0
LAYER
  2
001
 70
     0
 62
     7
  6
CONTINUOUS
  0
ENDTAB
  0
TABLE
  2
STYLE
 70
     2
  0
STYLE
  2
STANDARD
 70
     0
 40
0.0
 41
1.0
 50
0.0
 71
     0
 42
0.2
  3
TXT
  4
BIGFONT
  0
STYLE
  2
TATEGAKI
 70
     4
 40
1.0
 41
1.0
 50
0.0
 71
     0
 42
0.2
  3
TXT
  4
BIGFONT
  0
ENDTAB
  0
TABLE
  2
VIEW
 70
     0
  0
ENDTAB
  0
ENDSEC
  0
SECTION
  2
BLOCKS
  0
BLOCK
  8
001
  2
*D0
 70
     1
 10
0.0
 20
0.0
  0
LINE
  8
001
 10
81.199513
 20
185.163113
 11
92.690742
 21
185.163113
  0
LINE
  8
001
 10
81.199513
 20
175.163113
 11
92.690742
 21
175.163113
  0
LINE
  8
001
 10
91.690742
 20
185.163113
 11
91.690742
 21
175.163113
  0
POLYLINE
  8
001
 66
     1
  0
VERTEX
  8
001
 10
92.226641
 20
187.163113
  0
VERTEX
  8
001
 10
91.690742
 20
185.163113
  0
VERTEX
  8
001
 10
91.154844
 20
187.163113
  0
SEQEND
  8
001
  0
POLYLINE
  8
001
 66
     1
  0
VERTEX
  8
001
 10
91.154844
 20
173.163113
  0
VERTEX
  8
001
 10
91.690742
 20
175.163113
  0
VERTEX
  8
001
 10
92.226641
 20
173.163113
  0
SEQEND
  8
001
  0
TEXT
  8
001
 10
90.080742
 20
188.963113
 40
3.6
  1
%%c10h9
 50
90.000003
 41
0.955556
  0
TEXT
  8
001
 10
88.030742
 20
204.443113
 40
2.16
  1
 0
 50
90.000003
 41
1.2
  0
TEXT
  8
001
 10
90.690742
 20
204.443113
 40
2.16
  1
-0.036
 50
90.000003
 41
0.946
  0
POINT
  8
001
 10
81.199513
 20
185.163113
  0
POINT
  8
001
 10
81.199513
 20
175.163113
  0
POINT
  8
001
 10
91.690742
 20
175.163113
  0
LINE
  8
001
 10
91.690742
 20
185.163113
 11
91.690742
 21
215.659913
  0
LINE
  8
001
 10
91.690742
 20
175.163113
 11
91.690742
 21
172.163113
  0
ENDBLK
  8
001
  0
BLOCK
  8
001
  2
*D1
 70
     1
 10
0.0
 20
0.0
  0
LINE
  8
001
 10
80.199513
 20
174.163113
 11
80.199513
 21
160.058188
  0
LINE
  8
001
 10
65.199513
 20
174.663113
 11
65.199513
 21
160.058188
  0
LINE
  8
001
 10
80.199513
 20
161.058188
 11
65.199513
 21
161.058188
  0
POLYLINE
  8
001
 66
     1
  0
VERTEX
  8
001
 10
78.199513
 20
161.594086
  0
VERTEX
  8
001
 10
80.199513
 20
161.058188
  0
VERTEX
  8
001
 10
78.199513
 20
160.522289
  0
SEQEND
  8
001
  0
POLYLINE
  8
001
 66
     1
  0
VERTEX
  8
001
 10
67.199513
 20
160.522289
  0
VERTEX
  8
001
 10
65.199513
 20
161.058188
  0
VERTEX
  8
001
 10
67.199513
 20
161.594086
  0
SEQEND
  8
001
  0
TEXT
  8
001
 10
66.352713
 20
162.668188
 40
3.6
  1
15
 41
1.032
  0
TEXT
  8
001
 10
72.544713
 20
164.718188
 40
2.16
  1
 0
 41
1.2
  0
TEXT
  8
001
 10
72.544713
 20
162.058188
 40
2.16
  1
-0.1
 41
1.062353
  0
POINT
  8
001
 10
80.199513
 20
174.163113
  0
POINT
  8
001
 10
65.199513
 20
174.663113
  0
POINT
  8
001
 10
65.199513
 20
161.058188
  0
ENDBLK
  8
001
  0
BLOCK
  8
001
  2
DIM-1
 70
     0
 10
0.0
 20
0.0
  0
TEXT
  8
001
 10
155.436871
 20
196.455562
 40
3.6
  1
黄銅
 41
0.716667
  0
POLYLINE
  8
001
 66
     1
 70
     1
 40
0.5
 41
0.5
  0
VERTEX
  8
001
 10
147.350392
 20
182.93906
 42
1.0
  0
VERTEX
  8
001
 10
146.850392
 20
182.93906
 42
1.0
  0
SEQEND
  8
001
  0
POLYLINE
  8
001
 66
     1
  0
VERTEX
  8
001
 10
147.100392
 20
182.93906
  0
VERTEX
  8
001
 10
153.436871
 20
195.455562
  0
VERTEX
  8
001
 10
163.628871
 20
195.455562
  0
SEQEND
  8
001
  0
ENDBLK
  8
001
  0
BLOCK
  8
001
  2
DIM-2
 70
     0
 10
0.0
 20
0.0
  0
TEXT
  8
001
 10
124.30915
 20
167.210145
 40
3.6
  1
軟鋼
 41
0.716667
  0
POLYLINE
  8
001
 66
     1
 70
     1
 40
0.5
 41
0.5
  0
VERTEX
  8
001
 10
142.686124
 20
176.536259
 42
1.0
  0
VERTEX
  8
001
 10
142.186124
 20
176.536259
 42
1.0
  0
SEQEND
  8
001
  0
POLYLINE
  8
001
 66
     1
  0
VERTEX
  8
001
 10
142.436124
 20
176.536259
  0
VERTEX
  8
001
 10
132.50115
 20
166.210145
  0
VERTEX
  8
001
 10
122.30915
 20
166.210145
  0
SEQEND
  8
001
  0
ENDBLK
  8
001
  0
BLOCK
  8
001
  2
DIM-3
 70
     0
 10
0.0
 20
0.0
  0
TEXT
  8
001
 10
158.478986
 20
164.78636
 40
3.6
  1
アルニコ磁石
 41
0.716667
  0
POLYLINE
  8
001
 66
     1
 70
     1
 40
0.5
 41
0.5
  0
VERTEX
  8
001
 10
146.534807
 20
178.923171
 42
1.0
  0
VERTEX
  8
001
 10
146.034807
 20
178.923171
 42
1.0
  0
SEQEND
  8
001
  0
POLYLINE
  8
001
 66
     1
  0
VERTEX
  8
001
 10
146.284807
 20
178.923171
  0
VERTEX
  8
001
 10
156.478986
 20
163.78636
  0
VERTEX
  8
001
 10
179.054986
 20
163.78636
  0
SEQEND
  8
001
  0
ENDBLK
  8
001
  0
BLOCK
  8
001
  2
DIM-4
 70
     0
 10
0.0
 20
0.0
  0
TEXT
  8
001
 10
99.217066
 20
157.974751
 40
3.6
  1
吸着面
 41
0.716667
  0
POLYLINE
  8
001
 66
     1
  0
VERTEX
  8
001
 10
81.037927
 20
176.181939
  0
VERTEX
  8
001
 10
80.199513
 20
178.07515
  0
VERTEX
  8
001
 10
81.872206
 20
176.854788
  0
SEQEND
  8
001
  0
POLYLINE
  8
001
 66
     1
  0
VERTEX
  8
001
 10
80.199513
 20
178.07515
  0
VERTEX
  8
001
 10
97.217066
 20
156.974751
  0
VERTEX
  8
001
 10
110.505066
 20
156.974751
  0
SEQEND
  8
001
  0
ENDBLK
  8
001
  0
ENDSEC
  0
SECTION
  2
ENTITIES
  0
DIMENSION
  8
001
  2
*D0
 10
91.690742
 20
175.163113
 11
90.080742
 21
188.963113
 13
81.199513
 23
185.163113
 14
81.199513
 24
175.163113
 50
270.0
  0
DIMENSION
  8
001
  2
*D1
 10
65.199513
 20
161.058188
 11
66.352713
 21
162.668188
 13
80.199513
 23
174.163113
 14
65.199513
 24
174.663113
 50
180.0
  0
INSERT
  8
001
  6
BYBLOCK
 62
     0
  2
DIM-1
 10
0.0
 20
0.0
  0
INSERT
  8
001
  6
BYBLOCK
 62
     0
  2
DIM-2
 10
0.0
 20
0.0
  0
INSERT
  8
001
  6
BYBLOCK
 62
     0
  2
DIM-3
 10
0.0
 20
0.0
  0
INSERT
  8
001
  6
BYBLOCK
 62
     0
  2
DIM-4
 10
0.0
 20
0.0
  0
LINE
  8
001
  6
CENTER
 10
137.699513
 20
180.163113
 11
152.699513
 21
180.163113
  0
LINE
  8
001
  6
CENTER
 10
145.199513
 20
172.663113
 11
145.199513
 21
187.663113
  0
CIRCLE
  8
001
 62
     3
 10
145.199513
 20
180.163113
 40
5.0
  0
CIRCLE
  8
001
 10
145.199513
 20
180.163113
 40
4.0
  0
CIRCLE
  8
001
 10
145.199513
 20
180.163113
 40
3.0
  0
LINE
  8
001
 62
     3
 10
65.199513
 20
175.663113
 11
65.199513
 21
184.663113
  0
LINE
  8
001
 62
     3
 10
80.199513
 20
175.163113
 11
80.199513
 21
185.163113
  0
LINE
  8
001
  6
CENTER
 10
83.077517
 20
180.163113
 11
62.286323
 21
180.163113
  0
LINE
  8
001
 62
     3
 10
80.199513
 20
185.163113
 11
65.699513
 21
185.163113
  0
LINE
  8
001
 62
     3
 10
80.199513
 20
175.163113
 11
65.699513
 21
175.163113
  0
LINE
  8
001
 62
     3
 10
65.199513
 20
184.663113
 11
65.699513
 21
185.163113
  0
LINE
  8
001
 62
     3
 10
65.199513
 20
175.663113
 11
65.699513
 21
175.163113
  0
LINE
  8
001
  6
DASHED
 10
80.199513
 20
184.163113
 11
75.199513
 21
184.163113
  0
LINE
  8
001
  6
DASHED
 10
80.199513
 20
176.163113
 11
75.199513
 21
176.163113
  0
LINE
  8
001
 10
0.0
 20
297.0
 11
0.0
 21
0.0
  0
LINE
  8
001
 10
0.0
 20
0.0
 11
210.0
 21
0.0
  0
LINE
  8
001
 10
210.0
 20
0.0
 11
210.0
 21
297.0
  0
LINE
  8
001
 10
210.0
 20
297.0
 11
0.0
 21
297.0
  0
TEXT
  8
001
 10
147.594426
 20
21.847548
 40
3.6
  1
KM-H001
 41
0.950526
  0
TEXT
  8
001
 10
92.409344
 20
114.924918
 40
3.6
  1
表面処理：　　なし　　
 41
0.716667
  0
LINE
  8
001
 10
92.409344
 20
113.924918
 11
126.465344
 21
113.924918
  0
LINE
  8
001
  6
DASHED
 10
80.199513
 20
183.163113
 11
75.199513
 21
183.163113
  0
LINE
  8
001
  6
DASHED
 10
80.199513
 20
177.163113
 11
75.199513
 21
177.163113
  0
ENDSEC
  0
EOF
