  0
SECTION
  2
HEADER
  9
$ACADVER
  1
AC1003
  9
$INSBASE
 10
0.0
 20
0.0
  9
$EXTMIN
 10
0.0
 20
0.0
  9
$EXTMAX
 10
210.0
 20
297.0
  9
$LIMMIN
 10
0.0
 20
0.0
  9
$LIMMAX
 10
12.0
 20
9.0
  9
$VIEWCTR
 10
6.591288
 20
4.579184
  9
$VIEWSIZE
 40
9.158369
  9
$SNAPMODE
 70
     0
  9
$SNAPUNIT
 10
1.0
 20
1.0
  9
$SNAPBASE
 10
0.0
 20
0.0
  9
$SNAPANG
 50
0.0
  9
$SNAPSTYLE
 70
     0
  9
$SNAPISOPAIR
 70
     0
  9
$GRIDMODE
 70
     0
  9
$GRIDUNIT
 10
0.0
 20
0.0
  9
$ORTHOMODE
 70
     0
  9
$REGENMODE
 70
     1
  9
$FILLMODE
 70
     1
  9
$QTEXTMODE
 70
     0
  9
$DRAGMODE
 70
     2
  9
$LTSCALE
 40
4.95
  9
$OSMODE
 70
     0
  9
$ATTMODE
 70
     1
  9
$TEXTSIZE
 40
3.2
  9
$TRACEWID
 40
0.05
  9
$TEXTSTYLE
  7
STANDARD
  9
$CLAYER
  8
0
  9
$CELTYPE
  6
CONTINUOUS
  9
$CECOLOR
 62
   256
  9
$DIMSCALE
 40
1.0
  9
$DIMASZ
 40
0.18
  9
$DIMEXO
 40
0.0625
  9
$DIMDLI
 40
0.38
  9
$DIMRND
 40
0.0
  9
$DIMDLE
 40
0.0
  9
$DIMEXE
 40
0.18
  9
$DIMTP
 40
0.0
  9
$DIMTM
 40
0.0
  9
$DIMTXT
 40
0.18
  9
$DIMCEN
 40
0.09
  9
$DIMTSZ
 40
0.0
  9
$DIMTOL
 70
     0
  9
$DIMLIM
 70
     0
  9
$DIMTIH
 70
     1
  9
$DIMTOH
 70
     1
  9
$DIMSE1
 70
     0
  9
$DIMSE2
 70
     0
  9
$DIMTAD
 70
     0
  9
$DIMZIN
 70
     0
  9
$DIMBLK
  1

  9
$DIMASO
 70
     1
  9
$DIMSHO
 70
     1
  9
$DIMPOST
  1

  9
$DIMAPOST
  1

  9
$DIMALT
 70
     0
  9
$DIMALTD
 70
     2
  9
$DIMALTF
 40
25.4
  9
$DIMLFAC
 40
1.0
  9
$LUNITS
 70
     2
  9
$LUPREC
 70
     4
  9
$AXISMODE
 70
     0
  9
$AXISUNIT
 10
0.0
 20
0.0
  9
$SKETCHINC
 40
0.1
  9
$FILLETRAD
 40
0.0
  9
$AUNITS
 70
     0
  9
$AUPREC
 70
     0
  9
$MENU
  1
acad
  9
$ELEVATION
 40
0.0
  9
$THICKNESS
 40
0.0
  9
$VIEWDIR
 10
0.0
 20
0.0
 30
1.0
  9
$LIMCHECK
 70
     0
  9
$BLIPMODE
 70
     1
  9
$CHAMFERA
 40
0.0
  9
$CHAMFERB
 40
0.0
  9
$FASTZOOM
 70
     1
  9
$SKPOLY
 70
     0
  9
$TDCREATE
 40
0.000000000
  9
$TDUPDATE
 40
0.000000000
  9
$TDINDWG
 40
0.0000000000
  9
$TDUSRTIMER
 40
0.0000000000
  9
$USRTIMER
 70
     1
  9
$ANGBASE
 50
0.0
  9
$ANGDIR
 70
     0
  9
$PDMODE
 70
     0
  9
$PDSIZE
 40
0.0
  9
$PLINEWID
 40
0.0
  9
$COORDS
 70
     1
  9
$USERI1
 70
     0
  9
$USERI2
 70
     0
  9
$USERI3
 70
     0
  9
$USERI4
 70
     0
  9
$USERI5
 70
     0
  9
$USERR1
 40
0.0
  9
$USERR2
 40
0.0
  9
$USERR3
 40
0.0
  9
$USERR4
 40
0.0
  9
$USERR5
 40
0.0
  0
ENDSEC
  0
SECTION
  2
TABLES
  0
TABLE
  2
LTYPE
 70
     5
  0
LTYPE
  2
CONTINUOUS
 70
    64
  3
Solid line
 72
    65
 73
     0
 40
0.0
  0
LTYPE
  2
DASHED
 70
    64
  3
DASHED
 72
    65
 73
     2
 40
0.75
 49
0.5
 49
-0.25
  0
LTYPE
  2
HIDDEN
 70
    64
  3
HIDDEN
 72
    65
 73
     2
 40
0.375
 49
0.25
 49
-0.125
  0
LTYPE
  2
CENTER
 70
    64
  3
CENTER
 72
    65
 73
     4
 40
2.0
 49
1.25
 49
-0.25
 49
0.25
 49
-0.25
  0
LTYPE
  2
PHANTOM
 70
    64
  3
PHANTOM
 72
    65
 73
     6
 40
2.5
 49
1.25
 49
-0.25
 49
0.25
 49
-0.25
 49
0.25
 49
-0.25
  0
ENDTAB
  0
TABLE
  2
LAYER
 70
     2
  0
LAYER
  2
0
 70
     0
 62
     7
  6
CONTINUOUS
  0
LAYER
  2
001
 70
     0
 62
     7
  6
CONTINUOUS
  0
ENDTAB
  0
TABLE
  2
STYLE
 70
     2
  0
STYLE
  2
STANDARD
 70
     0
 40
0.0
 41
1.0
 50
0.0
 71
     0
 42
0.2
  3
TXT
  4
BIGFONT
  0
STYLE
  2
TATEGAKI
 70
     4
 40
1.0
 41
1.0
 50
0.0
 71
     0
 42
0.2
  3
TXT
  4
BIGFONT
  0
ENDTAB
  0
TABLE
  2
VIEW
 70
     0
  0
ENDTAB
  0
ENDSEC
  0
SECTION
  2
BLOCKS
  0
BLOCK
  8
001
  2
*D0
 70
     1
 10
0.0
 20
0.0
  0
LINE
  8
001
 10
80.199513
 20
169.163113
 11
80.199513
 21
155.058188
  0
LINE
  8
001
 10
65.199513
 20
169.663113
 11
65.199513
 21
155.058188
  0
LINE
  8
001
 10
80.199513
 20
156.058188
 11
65.199513
 21
156.058188
  0
POLYLINE
  8
001
 66
     1
  0
VERTEX
  8
001
 10
78.199513
 20
156.594086
  0
VERTEX
  8
001
 10
80.199513
 20
156.058188
  0
VERTEX
  8
001
 10
78.199513
 20
155.522289
  0
SEQEND
  8
001
  0
POLYLINE
  8
001
 66
     1
  0
VERTEX
  8
001
 10
67.199513
 20
155.522289
  0
VERTEX
  8
001
 10
65.199513
 20
156.058188
  0
VERTEX
  8
001
 10
67.199513
 20
156.594086
  0
SEQEND
  8
001
  0
TEXT
  8
001
 10
66.352713
 20
157.668188
 40
3.6
  1
15
 41
1.032
  0
TEXT
  8
001
 10
72.544713
 20
159.718188
 40
2.16
  1
 0
 41
1.2
  0
TEXT
  8
001
 10
72.544713
 20
157.058188
 40
2.16
  1
-0.1
 41
1.062353
  0
POINT
  8
001
 10
80.199513
 20
169.163113
  0
POINT
  8
001
 10
65.199513
 20
169.663113
  0
POINT
  8
001
 10
65.199513
 20
156.058188
  0
ENDBLK
  8
001
  0
BLOCK
  8
001
  2
*D1
 70
     1
 10
0.0
 20
0.0
  0
LINE
  8
001
 10
81.199513
 20
190.163113
 11
92.690742
 21
190.163113
  0
LINE
  8
001
 10
81.199513
 20
170.163113
 11
92.690742
 21
170.163113
  0
LINE
  8
001
 10
91.690742
 20
190.163113
 11
91.690742
 21
170.163113
  0
POLYLINE
  8
001
 66
     1
  0
VERTEX
  8
001
 10
92.226641
 20
192.163113
  0
VERTEX
  8
001
 10
91.690742
 20
190.163113
  0
VERTEX
  8
001
 10
91.154844
 20
192.163113
  0
SEQEND
  8
001
  0
POLYLINE
  8
001
 66
     1
  0
VERTEX
  8
001
 10
91.154844
 20
168.163113
  0
VERTEX
  8
001
 10
91.690742
 20
170.163113
  0
VERTEX
  8
001
 10
92.226641
 20
168.163113
  0
SEQEND
  8
001
  0
TEXT
  8
001
 10
90.080742
 20
193.963113
 40
3.6
  1
%%c20h9
 50
90.000003
 41
0.889655
  0
TEXT
  8
001
 10
88.030742
 20
209.443113
 40
2.16
  1
 0
 50
90.000003
 41
1.2
  0
TEXT
  8
001
 10
90.690742
 20
209.443113
 40
2.16
  1
-0.052
 50
90.000003
 41
0.946
  0
POINT
  8
001
 10
81.199513
 20
190.163113
  0
POINT
  8
001
 10
81.199513
 20
170.163113
  0
POINT
  8
001
 10
91.690742
 20
170.163113
  0
LINE
  8
001
 10
91.690742
 20
190.163113
 11
91.690742
 21
220.659913
  0
LINE
  8
001
 10
91.690742
 20
170.163113
 11
91.690742
 21
167.163113
  0
ENDBLK
  8
001
  0
BLOCK
  8
001
  2
DIM-1
 70
     0
 10
0.0
 20
0.0
  0
TEXT
  8
001
 10
153.062805
 20
199.275977
 40
3.6
  1
黄銅
 41
0.716667
  0
POLYLINE
  8
001
 66
     1
 70
     1
 40
0.5
 41
0.5
  0
VERTEX
  8
001
 10
144.976326
 20
185.759475
 42
1.0
  0
VERTEX
  8
001
 10
144.476326
 20
185.759475
 42
1.0
  0
SEQEND
  8
001
  0
POLYLINE
  8
001
 66
     1
  0
VERTEX
  8
001
 10
144.726326
 20
185.759475
  0
VERTEX
  8
001
 10
151.062805
 20
198.275977
  0
VERTEX
  8
001
 10
161.254805
 20
198.275977
  0
SEQEND
  8
001
  0
ENDBLK
  8
001
  0
BLOCK
  8
001
  2
DIM-2
 70
     0
 10
0.0
 20
0.0
  0
TEXT
  8
001
 10
117.060023
 20
163.171367
 40
3.6
  1
軟鋼
 41
0.716667
  0
POLYLINE
  8
001
 66
     1
 70
     1
 40
0.5
 41
0.5
  0
VERTEX
  8
001
 10
135.436996
 20
172.497481
 42
1.0
  0
VERTEX
  8
001
 10
134.936996
 20
172.497481
 42
1.0
  0
SEQEND
  8
001
  0
POLYLINE
  8
001
 66
     1
  0
VERTEX
  8
001
 10
135.186996
 20
172.497481
  0
VERTEX
  8
001
 10
125.252023
 20
162.171367
  0
VERTEX
  8
001
 10
115.060023
 20
162.171367
  0
SEQEND
  8
001
  0
ENDBLK
  8
001
  0
BLOCK
  8
001
  2
DIM-3
 70
     0
 10
0.0
 20
0.0
  0
TEXT
  8
001
 10
154.826505
 20
162.897668
 40
3.6
  1
アルニコ磁石
 41
0.716667
  0
POLYLINE
  8
001
 66
     1
 70
     1
 40
0.5
 41
0.5
  0
VERTEX
  8
001
 10
142.882326
 20
177.034479
 42
1.0
  0
VERTEX
  8
001
 10
142.382326
 20
177.034479
 42
1.0
  0
SEQEND
  8
001
  0
POLYLINE
  8
001
 66
     1
  0
VERTEX
  8
001
 10
142.632326
 20
177.034479
  0
VERTEX
  8
001
 10
152.826505
 20
161.897668
  0
VERTEX
  8
001
 10
175.402505
 20
161.897668
  0
SEQEND
  8
001
  0
ENDBLK
  8
001
  0
BLOCK
  8
001
  2
DIM-4
 70
     0
 10
0.0
 20
0.0
  0
TEXT
  8
001
 10
99.217066
 20
154.840074
 40
3.6
  1
吸着面
 41
0.716667
  0
POLYLINE
  8
001
 66
     1
  0
VERTEX
  8
001
 10
81.037927
 20
173.047263
  0
VERTEX
  8
001
 10
80.199513
 20
174.940474
  0
VERTEX
  8
001
 10
81.872206
 20
173.720112
  0
SEQEND
  8
001
  0
POLYLINE
  8
001
 66
     1
  0
VERTEX
  8
001
 10
80.199513
 20
174.940474
  0
VERTEX
  8
001
 10
97.217066
 20
153.840074
  0
VERTEX
  8
001
 10
110.505066
 20
153.840074
  0
SEQEND
  8
001
  0
ENDBLK
  8
001
  0
ENDSEC
  0
SECTION
  2
ENTITIES
  0
DIMENSION
  8
001
  2
*D0
 10
65.199513
 20
156.058188
 11
66.352713
 21
157.668188
 13
80.199513
 23
169.163113
 14
65.199513
 24
169.663113
 50
180.0
  0
DIMENSION
  8
001
  2
*D1
 10
91.690742
 20
170.163113
 11
90.080742
 21
193.963113
 13
81.199513
 23
190.163113
 14
81.199513
 24
170.163113
 50
270.0
  0
INSERT
  8
001
  6
BYBLOCK
 62
     0
  2
DIM-1
 10
0.0
 20
0.0
  0
INSERT
  8
001
  6
BYBLOCK
 62
     0
  2
DIM-2
 10
0.0
 20
0.0
  0
INSERT
  8
001
  6
BYBLOCK
 62
     0
  2
DIM-3
 10
0.0
 20
0.0
  0
INSERT
  8
001
  6
BYBLOCK
 62
     0
  2
DIM-4
 10
0.0
 20
0.0
  0
CIRCLE
  8
001
 62
     3
 10
140.199513
 20
180.163113
 40
10.0
  0
CIRCLE
  8
001
 10
140.199513
 20
180.163113
 40
8.0
  0
CIRCLE
  8
001
 10
140.199513
 20
180.163113
 40
7.0
  0
LINE
  8
001
  6
CENTER
 10
83.077517
 20
180.163113
 11
62.286323
 21
180.163113
  0
LINE
  8
001
 10
0.0
 20
297.0
 11
0.0
 21
0.0
  0
LINE
  8
001
 10
0.0
 20
0.0
 11
210.0
 21
0.0
  0
LINE
  8
001
 10
210.0
 20
0.0
 11
210.0
 21
297.0
  0
LINE
  8
001
 10
210.0
 20
297.0
 11
0.0
 21
297.0
  0
LINE
  8
001
 62
     3
 10
80.199513
 20
190.163113
 11
65.699513
 21
190.163113
  0
LINE
  8
001
 62
     3
 10
65.199513
 20
189.663113
 11
65.699513
 21
190.163113
  0
LINE
  8
001
 62
     3
 10
80.199513
 20
170.163113
 11
65.699513
 21
170.163113
  0
LINE
  8
001
 62
     3
 10
65.199513
 20
170.663113
 11
65.699513
 21
170.163113
  0
LINE
  8
001
 62
     3
 10
65.199513
 20
170.663113
 11
65.199513
 21
189.663113
  0
LINE
  8
001
 62
     3
 10
80.199513
 20
170.163113
 11
80.199513
 21
190.163113
  0
LINE
  8
001
  6
DASHED
 10
80.199513
 20
188.163113
 11
75.199513
 21
188.163113
  0
LINE
  8
001
  6
DASHED
 10
80.199513
 20
172.163113
 11
75.199513
 21
172.163113
  0
LINE
  8
001
  6
CENTER
 10
128.699513
 20
180.163113
 11
151.699513
 21
180.163113
  0
LINE
  8
001
  6
CENTER
 10
140.199513
 20
168.663113
 11
140.199513
 21
191.663113
  0
TEXT
  8
001
 10
147.594426
 20
21.847548
 40
3.6
  1
KM-H002
 41
0.903
  0
TEXT
  8
001
 10
92.409344
 20
114.924918
 40
3.6
  1
表面処理：　　なし　　
 41
0.716667
  0
LINE
  8
001
 10
92.409344
 20
113.924918
 11
126.465344
 21
113.924918
  0
LINE
  8
001
  6
DASHED
 10
80.199513
 20
187.163113
 11
75.199513
 21
187.163113
  0
LINE
  8
001
  6
DASHED
 10
80.199513
 20
173.163113
 11
75.199513
 21
173.163113
  0
ENDSEC
  0
EOF
