  0
SECTION
  2
HEADER
  9
$ACADVER
  1
AC1003
  9
$INSBASE
 10
0.0
 20
0.0
  9
$EXTMIN
 10
0.0
 20
0.0
  9
$EXTMAX
 10
210.0
 20
297.0
  9
$LIMMIN
 10
0.0
 20
0.0
  9
$LIMMAX
 10
12.0
 20
9.0
  9
$VIEWCTR
 10
6.591288
 20
4.579184
  9
$VIEWSIZE
 40
9.158369
  9
$SNAPMODE
 70
     0
  9
$SNAPUNIT
 10
1.0
 20
1.0
  9
$SNAPBASE
 10
0.0
 20
0.0
  9
$SNAPANG
 50
0.0
  9
$SNAPSTYLE
 70
     0
  9
$SNAPISOPAIR
 70
     0
  9
$GRIDMODE
 70
     0
  9
$GRIDUNIT
 10
0.0
 20
0.0
  9
$ORTHOMODE
 70
     0
  9
$REGENMODE
 70
     1
  9
$FILLMODE
 70
     1
  9
$QTEXTMODE
 70
     0
  9
$DRAGMODE
 70
     2
  9
$LTSCALE
 40
4.95
  9
$OSMODE
 70
     0
  9
$ATTMODE
 70
     1
  9
$TEXTSIZE
 40
3.2
  9
$TRACEWID
 40
0.05
  9
$TEXTSTYLE
  7
STANDARD
  9
$CLAYER
  8
0
  9
$CELTYPE
  6
CONTINUOUS
  9
$CECOLOR
 62
   256
  9
$DIMSCALE
 40
1.0
  9
$DIMASZ
 40
0.18
  9
$DIMEXO
 40
0.0625
  9
$DIMDLI
 40
0.38
  9
$DIMRND
 40
0.0
  9
$DIMDLE
 40
0.0
  9
$DIMEXE
 40
0.18
  9
$DIMTP
 40
0.0
  9
$DIMTM
 40
0.0
  9
$DIMTXT
 40
0.18
  9
$DIMCEN
 40
0.09
  9
$DIMTSZ
 40
0.0
  9
$DIMTOL
 70
     0
  9
$DIMLIM
 70
     0
  9
$DIMTIH
 70
     1
  9
$DIMTOH
 70
     1
  9
$DIMSE1
 70
     0
  9
$DIMSE2
 70
     0
  9
$DIMTAD
 70
     0
  9
$DIMZIN
 70
     0
  9
$DIMBLK
  1

  9
$DIMASO
 70
     1
  9
$DIMSHO
 70
     1
  9
$DIMPOST
  1

  9
$DIMAPOST
  1

  9
$DIMALT
 70
     0
  9
$DIMALTD
 70
     2
  9
$DIMALTF
 40
25.4
  9
$DIMLFAC
 40
1.0
  9
$LUNITS
 70
     2
  9
$LUPREC
 70
     4
  9
$AXISMODE
 70
     0
  9
$AXISUNIT
 10
0.0
 20
0.0
  9
$SKETCHINC
 40
0.1
  9
$FILLETRAD
 40
0.0
  9
$AUNITS
 70
     0
  9
$AUPREC
 70
     0
  9
$MENU
  1
acad
  9
$ELEVATION
 40
0.0
  9
$THICKNESS
 40
0.0
  9
$VIEWDIR
 10
0.0
 20
0.0
 30
1.0
  9
$LIMCHECK
 70
     0
  9
$BLIPMODE
 70
     1
  9
$CHAMFERA
 40
0.0
  9
$CHAMFERB
 40
0.0
  9
$FASTZOOM
 70
     1
  9
$SKPOLY
 70
     0
  9
$TDCREATE
 40
0.000000000
  9
$TDUPDATE
 40
0.000000000
  9
$TDINDWG
 40
0.0000000000
  9
$TDUSRTIMER
 40
0.0000000000
  9
$USRTIMER
 70
     1
  9
$ANGBASE
 50
0.0
  9
$ANGDIR
 70
     0
  9
$PDMODE
 70
     0
  9
$PDSIZE
 40
0.0
  9
$PLINEWID
 40
0.0
  9
$COORDS
 70
     1
  9
$USERI1
 70
     0
  9
$USERI2
 70
     0
  9
$USERI3
 70
     0
  9
$USERI4
 70
     0
  9
$USERI5
 70
     0
  9
$USERR1
 40
0.0
  9
$USERR2
 40
0.0
  9
$USERR3
 40
0.0
  9
$USERR4
 40
0.0
  9
$USERR5
 40
0.0
  0
ENDSEC
  0
SECTION
  2
TABLES
  0
TABLE
  2
LTYPE
 70
     5
  0
LTYPE
  2
CONTINUOUS
 70
    64
  3
Solid line
 72
    65
 73
     0
 40
0.0
  0
LTYPE
  2
DASHED
 70
    64
  3
DASHED
 72
    65
 73
     2
 40
0.75
 49
0.5
 49
-0.25
  0
LTYPE
  2
HIDDEN
 70
    64
  3
HIDDEN
 72
    65
 73
     2
 40
0.375
 49
0.25
 49
-0.125
  0
LTYPE
  2
CENTER
 70
    64
  3
CENTER
 72
    65
 73
     4
 40
2.0
 49
1.25
 49
-0.25
 49
0.25
 49
-0.25
  0
LTYPE
  2
PHANTOM
 70
    64
  3
PHANTOM
 72
    65
 73
     6
 40
2.5
 49
1.25
 49
-0.25
 49
0.25
 49
-0.25
 49
0.25
 49
-0.25
  0
ENDTAB
  0
TABLE
  2
LAYER
 70
     2
  0
LAYER
  2
0
 70
     0
 62
     7
  6
CONTINUOUS
  0
LAYER
  2
001
 70
     0
 62
     7
  6
CONTINUOUS
  0
ENDTAB
  0
TABLE
  2
STYLE
 70
     2
  0
STYLE
  2
STANDARD
 70
     0
 40
0.0
 41
1.0
 50
0.0
 71
     0
 42
0.2
  3
TXT
  4
BIGFONT
  0
STYLE
  2
TATEGAKI
 70
     4
 40
1.0
 41
1.0
 50
0.0
 71
     0
 42
0.2
  3
TXT
  4
BIGFONT
  0
ENDTAB
  0
TABLE
  2
VIEW
 70
     0
  0
ENDTAB
  0
ENDSEC
  0
SECTION
  2
BLOCKS
  0
BLOCK
  8
001
  2
DIM-1
 70
     0
 10
0.0
 20
0.0
  0
TEXT
  8
001
 10
24.700186
 20
189.320471
 40
3.6
  1
Ｍ５×Ｐ０．８
 41
0.833333
  0
POLYLINE
  8
001
 66
     1
  0
VERTEX
  8
001
 10
61.746992
 20
174.981425
  0
VERTEX
  8
001
 10
62.296787
 20
172.9852
  0
VERTEX
  8
001
 10
60.822538
 20
174.439084
  0
SEQEND
  8
001
  0
POLYLINE
  8
001
 66
     1
  0
VERTEX
  8
001
 10
62.296787
 20
172.9852
  0
VERTEX
  8
001
 10
53.300185
 20
188.320471
  0
VERTEX
  8
001
 10
21.100186
 20
188.320471
  0
SEQEND
  8
001
  0
ENDBLK
  8
001
  0
BLOCK
  8
001
  2
*D1
 70
     1
 10
0.0
 20
0.0
  0
LINE
  8
001
 10
105.349325
 20
176.961197
 11
105.349325
 21
188.845272
  0
LINE
  8
001
 10
87.349325
 20
176.661197
 11
87.349325
 21
188.845272
  0
LINE
  8
001
 10
105.349325
 20
187.845272
 11
87.349325
 21
187.845272
  0
POLYLINE
  8
001
 66
     1
  0
VERTEX
  8
001
 10
103.349325
 20
188.381171
  0
VERTEX
  8
001
 10
105.349325
 20
187.845272
  0
VERTEX
  8
001
 10
103.349325
 20
187.309374
  0
SEQEND
  8
001
  0
POLYLINE
  8
001
 66
     1
  0
VERTEX
  8
001
 10
89.349325
 20
187.309374
  0
VERTEX
  8
001
 10
87.349325
 20
187.845272
  0
VERTEX
  8
001
 10
89.349325
 20
188.381171
  0
SEQEND
  8
001
  0
TEXT
  8
001
 10
93.253325
 20
188.845272
 40
3.6
  1
18
 41
1.032
  0
POINT
  8
001
 10
105.349325
 20
176.961197
  0
POINT
  8
001
 10
87.349325
 20
176.661197
  0
POINT
  8
001
 10
87.349325
 20
187.845272
  0
ENDBLK
  8
001
  0
BLOCK
  8
001
  2
*D2
 70
     1
 10
0.0
 20
0.0
  0
LINE
  8
001
 10
106.149325
 20
166.161197
 11
121.712712
 21
166.161197
  0
LINE
  8
001
 10
106.149325
 20
176.161197
 11
121.712712
 21
176.161197
  0
LINE
  8
001
 10
120.712712
 20
166.161197
 11
120.712712
 21
176.161197
  0
POLYLINE
  8
001
 66
     1
  0
VERTEX
  8
001
 10
120.176813
 20
164.161197
  0
VERTEX
  8
001
 10
120.712712
 20
166.161197
  0
VERTEX
  8
001
 10
121.24861
 20
164.161197
  0
SEQEND
  8
001
  0
POLYLINE
  8
001
 66
     1
  0
VERTEX
  8
001
 10
121.24861
 20
178.161197
  0
VERTEX
  8
001
 10
120.712712
 20
176.161197
  0
VERTEX
  8
001
 10
120.176813
 20
178.161197
  0
SEQEND
  8
001
  0
TEXT
  8
001
 10
119.712712
 20
179.961197
 40
3.6
  1
%%c10
 50
90.000003
 41
1.032
  0
POINT
  8
001
 10
106.149325
 20
166.161197
  0
POINT
  8
001
 10
106.149325
 20
176.161197
  0
POINT
  8
001
 10
120.712712
 20
176.161197
  0
LINE
  8
001
 10
120.712712
 20
166.161197
 11
120.712712
 21
163.161197
  0
LINE
  8
001
 10
120.712712
 20
176.161197
 11
120.712712
 21
190.249197
  0
ENDBLK
  8
001
  0
BLOCK
  8
001
  2
DIM-2
 70
     0
 10
0.0
 20
0.0
  0
TEXT
  8
001
 10
170.653016
 20
187.776948
 40
3.6
  1
黄銅
 41
0.716667
  0
POLYLINE
  8
001
 66
     1
 70
     1
 40
0.5
 41
0.5
  0
VERTEX
  8
001
 10
162.566537
 20
174.260446
 42
1.0
  0
VERTEX
  8
001
 10
162.066537
 20
174.260446
 42
1.0
  0
SEQEND
  8
001
  0
POLYLINE
  8
001
 66
     1
  0
VERTEX
  8
001
 10
162.316537
 20
174.260446
  0
VERTEX
  8
001
 10
168.653016
 20
186.776948
  0
VERTEX
  8
001
 10
178.845016
 20
186.776948
  0
SEQEND
  8
001
  0
ENDBLK
  8
001
  0
BLOCK
  8
001
  2
DIM-3
 70
     0
 10
0.0
 20
0.0
  0
TEXT
  8
001
 10
140.042826
 20
158.334365
 40
3.6
  1
軟鋼
 41
0.716667
  0
POLYLINE
  8
001
 66
     1
 70
     1
 40
0.5
 41
0.5
  0
VERTEX
  8
001
 10
158.419799
 20
167.66048
 42
1.0
  0
VERTEX
  8
001
 10
157.919799
 20
167.66048
 42
1.0
  0
SEQEND
  8
001
  0
POLYLINE
  8
001
 66
     1
  0
VERTEX
  8
001
 10
158.169799
 20
167.66048
  0
VERTEX
  8
001
 10
148.234826
 20
157.334365
  0
VERTEX
  8
001
 10
138.042826
 20
157.334365
  0
SEQEND
  8
001
  0
ENDBLK
  8
001
  0
BLOCK
  8
001
  2
DIM-4
 70
     0
 10
0.0
 20
0.0
  0
TEXT
  8
001
 10
174.140063
 20
155.594112
 40
3.6
  1
アルニコ磁石
 41
0.716667
  0
POLYLINE
  8
001
 66
     1
 70
     1
 40
0.5
 41
0.5
  0
VERTEX
  8
001
 10
162.195884
 20
169.730922
 42
1.0
  0
VERTEX
  8
001
 10
161.695884
 20
169.730922
 42
1.0
  0
SEQEND
  8
001
  0
POLYLINE
  8
001
 66
     1
  0
VERTEX
  8
001
 10
161.945884
 20
169.730922
  0
VERTEX
  8
001
 10
172.140063
 20
154.594112
  0
VERTEX
  8
001
 10
194.716062
 20
154.594112
  0
SEQEND
  8
001
  0
ENDBLK
  8
001
  0
BLOCK
  8
001
  2
DIM-5
 70
     0
 10
0.0
 20
0.0
  0
TEXT
  8
001
 10
124.366878
 20
149.280081
 40
3.6
  1
吸着面
 41
0.716667
  0
POLYLINE
  8
001
 66
     1
  0
VERTEX
  8
001
 10
106.18774
 20
167.48727
  0
VERTEX
  8
001
 10
105.349325
 20
169.380481
  0
VERTEX
  8
001
 10
107.022019
 20
168.160119
  0
SEQEND
  8
001
  0
POLYLINE
  8
001
 66
     1
  0
VERTEX
  8
001
 10
105.349325
 20
169.380481
  0
VERTEX
  8
001
 10
122.366878
 20
148.280081
  0
VERTEX
  8
001
 10
135.654878
 20
148.280081
  0
SEQEND
  8
001
  0
ENDBLK
  8
001
  0
BLOCK
  8
001
  2
*D7
 70
     1
 10
0.0
 20
0.0
  0
LINE
  8
001
 10
92.349325
 20
167.661197
 11
92.349325
 21
156.335603
  0
LINE
  8
001
 10
87.349325
 20
165.661197
 11
87.349325
 21
156.335603
  0
LINE
  8
001
 10
92.349325
 20
157.335603
 11
87.349325
 21
157.335603
  0
POLYLINE
  8
001
 66
     1
  0
VERTEX
  8
001
 10
94.349325
 20
156.799704
  0
VERTEX
  8
001
 10
92.349325
 20
157.335603
  0
VERTEX
  8
001
 10
94.349325
 20
157.871501
  0
SEQEND
  8
001
  0
POLYLINE
  8
001
 66
     1
  0
VERTEX
  8
001
 10
85.349325
 20
157.871501
  0
VERTEX
  8
001
 10
87.349325
 20
157.335603
  0
VERTEX
  8
001
 10
85.349325
 20
156.799704
  0
SEQEND
  8
001
  0
TEXT
  8
001
 10
80.453325
 20
158.335603
 40
3.6
  1
5
 41
0.86
  0
POINT
  8
001
 10
92.349325
 20
167.661197
  0
POINT
  8
001
 10
87.349325
 20
165.661197
  0
POINT
  8
001
 10
87.349325
 20
157.335603
  0
LINE
  8
001
 10
92.349325
 20
157.335603
 11
95.349325
 21
157.335603
  0
LINE
  8
001
 10
87.349325
 20
157.335603
 11
79.453325
 21
157.335603
  0
ENDBLK
  8
001
  0
ENDSEC
  0
SECTION
  2
ENTITIES
  0
INSERT
  8
001
  6
BYBLOCK
 62
     0
  2
DIM-1
 10
0.0
 20
0.0
  0
DIMENSION
  8
001
  2
*D1
 10
87.349325
 20
187.845272
 11
93.253325
 21
188.845272
 13
105.349325
 23
176.961197
 14
87.349325
 24
176.661197
 50
180.0
  0
DIMENSION
  8
001
  2
*D2
 10
120.712712
 20
176.161197
 11
119.712712
 21
179.961197
 13
106.149325
 23
166.161197
 14
106.149325
 24
176.161197
 50
90.0
  0
INSERT
  8
001
  6
BYBLOCK
 62
     0
  2
DIM-2
 10
0.0
 20
0.0
  0
INSERT
  8
001
  6
BYBLOCK
 62
     0
  2
DIM-3
 10
0.0
 20
0.0
  0
INSERT
  8
001
  6
BYBLOCK
 62
     0
  2
DIM-4
 10
0.0
 20
0.0
  0
INSERT
  8
001
  6
BYBLOCK
 62
     0
  2
DIM-5
 10
0.0
 20
0.0
  0
DIMENSION
  8
001
  2
*D7
 10
87.349325
 20
157.335603
 11
80.453325
 21
158.335603
 13
92.349325
 23
167.661197
 14
87.349325
 24
165.661197
 50
180.0
  0
LINE
  8
001
 10
0.0
 20
297.0
 11
0.0
 21
0.0
  0
LINE
  8
001
 10
0.0
 20
0.0
 11
210.0
 21
0.0
  0
LINE
  8
001
 10
210.0
 20
0.0
 11
210.0
 21
297.0
  0
LINE
  8
001
 10
210.0
 20
297.0
 11
0.0
 21
297.0
  0
LINE
  8
001
  6
CENTER
 10
85.540174
 20
171.161197
 11
107.474482
 21
171.161197
  0
CIRCLE
  8
001
 10
160.692182
 20
171.161197
 40
4.0
  0
CIRCLE
  8
001
 10
160.692182
 20
171.161197
 40
3.0
  0
LINE
  8
001
  6
CENTER
 10
160.692182
 20
179.161197
 11
160.692182
 21
163.161197
  0
LINE
  8
001
  6
CENTER
 10
152.692182
 20
171.161197
 11
168.692182
 21
171.161197
  0
CIRCLE
  8
001
 62
     3
 10
160.692182
 20
171.161197
 40
5.0
  0
LINE
  8
001
 62
     3
 10
87.849325
 20
166.161197
 11
105.149325
 21
166.161197
  0
LINE
  8
001
 62
     3
 10
87.349325
 20
166.661197
 11
87.849325
 21
166.161197
  0
LINE
  8
001
 62
     3
 10
87.349325
 20
166.661197
 11
87.349325
 21
175.661197
  0
LINE
  8
001
 62
     3
 10
87.849325
 20
176.161197
 11
87.349325
 21
175.661197
  0
LINE
  8
001
 62
     3
 10
87.849325
 20
176.161197
 11
105.149325
 21
176.161197
  0
LINE
  8
001
 62
     3
 10
105.349325
 20
175.961197
 11
105.349325
 21
166.361197
  0
LINE
  8
001
 62
     3
 10
105.349325
 20
166.361197
 11
105.149325
 21
166.161197
  0
LINE
  8
001
 62
     3
 10
105.349325
 20
175.961197
 11
105.149325
 21
176.161197
  0
LINE
  8
001
 10
87.849325
 20
166.161197
 11
87.849325
 21
176.161197
  0
LINE
  8
001
  6
DASHED
 10
92.349325
 20
173.661197
 11
87.349325
 21
173.661197
  0
LINE
  8
001
  6
DASHED
 10
94.049325
 20
173.161197
 11
87.349325
 21
173.161197
  0
LINE
  8
001
  6
DASHED
 10
94.049325
 20
169.161197
 11
87.349325
 21
169.161197
  0
LINE
  8
001
  6
DASHED
 10
92.349325
 20
168.661197
 11
87.349325
 21
168.661197
  0
LINE
  8
001
  6
DASHED
 10
94.049325
 20
173.161197
 11
94.049325
 21
169.161197
  0
LINE
  8
001
  6
DASHED
 10
92.349325
 20
168.661197
 11
92.349325
 21
173.661197
  0
LINE
  8
001
  6
DASHED
 10
92.849325
 20
173.161197
 11
92.849325
 21
169.161197
  0
LINE
  8
001
  6
DASHED
 10
94.049325
 20
173.161197
 11
95.204026
 21
171.161197
  0
LINE
  8
001
  6
DASHED
 10
94.049325
 20
169.161197
 11
95.204026
 21
171.161197
  0
LINE
  8
001
  6
DASHED
 10
92.849325
 20
173.161197
 11
92.349325
 21
173.661197
  0
LINE
  8
001
  6
DASHED
 10
92.849325
 20
169.161197
 11
92.349325
 21
168.661197
  0
LINE
  8
001
  6
CENTER
 10
64.006468
 20
179.161197
 11
64.006468
 21
163.161197
  0
LINE
  8
001
  6
CENTER
 10
72.006468
 20
171.161197
 11
56.006468
 21
171.161197
  0
CIRCLE
  8
001
 62
     3
 10
64.006468
 20
171.161197
 40
5.0
  0
CIRCLE
  8
001
 10
64.006468
 20
171.161197
 40
2.5
  0
CIRCLE
  8
001
 10
64.006468
 20
171.161197
 40
1.7
  0
LINE
  8
001
  6
DASHED
 10
105.349325
 20
175.161197
 11
100.349325
 21
175.161197
  0
LINE
  8
001
  6
DASHED
 10
105.349325
 20
167.161197
 11
100.349325
 21
167.161197
  0
TEXT
  8
001
 10
147.594426
 20
21.847548
 40
3.6
  1
KM-T001
 41
0.950526
  0
TEXT
  8
001
 10
92.409344
 20
114.924918
 40
3.6
  1
表面処理：　ニッケルメッキ　
 41
0.716667
  0
LINE
  8
001
 10
92.409344
 20
113.924918
 11
135.753344
 21
113.924918
  0
LINE
  8
001
  6
DASHED
 10
105.349325
 20
174.161197
 11
100.349325
 21
174.161197
  0
LINE
  8
001
  6
DASHED
 10
105.349325
 20
168.161197
 11
100.349325
 21
168.161197
  0
ENDSEC
  0
EOF
