  0
SECTION
  2
HEADER
  9
$ACADVER
  1
AC1003
  9
$INSBASE
 10
0.0
 20
0.0
  9
$EXTMIN
 10
0.0
 20
0.0
  9
$EXTMAX
 10
210.0
 20
297.0
  9
$LIMMIN
 10
0.0
 20
0.0
  9
$LIMMAX
 10
12.0
 20
9.0
  9
$VIEWCTR
 10
6.591288
 20
4.579184
  9
$VIEWSIZE
 40
9.158369
  9
$SNAPMODE
 70
     0
  9
$SNAPUNIT
 10
1.0
 20
1.0
  9
$SNAPBASE
 10
0.0
 20
0.0
  9
$SNAPANG
 50
0.0
  9
$SNAPSTYLE
 70
     0
  9
$SNAPISOPAIR
 70
     0
  9
$GRIDMODE
 70
     0
  9
$GRIDUNIT
 10
0.0
 20
0.0
  9
$ORTHOMODE
 70
     0
  9
$REGENMODE
 70
     1
  9
$FILLMODE
 70
     1
  9
$QTEXTMODE
 70
     0
  9
$DRAGMODE
 70
     2
  9
$LTSCALE
 40
4.95
  9
$OSMODE
 70
     0
  9
$ATTMODE
 70
     1
  9
$TEXTSIZE
 40
3.2
  9
$TRACEWID
 40
0.05
  9
$TEXTSTYLE
  7
STANDARD
  9
$CLAYER
  8
0
  9
$CELTYPE
  6
CONTINUOUS
  9
$CECOLOR
 62
   256
  9
$DIMSCALE
 40
1.0
  9
$DIMASZ
 40
0.18
  9
$DIMEXO
 40
0.0625
  9
$DIMDLI
 40
0.38
  9
$DIMRND
 40
0.0
  9
$DIMDLE
 40
0.0
  9
$DIMEXE
 40
0.18
  9
$DIMTP
 40
0.0
  9
$DIMTM
 40
0.0
  9
$DIMTXT
 40
0.18
  9
$DIMCEN
 40
0.09
  9
$DIMTSZ
 40
0.0
  9
$DIMTOL
 70
     0
  9
$DIMLIM
 70
     0
  9
$DIMTIH
 70
     1
  9
$DIMTOH
 70
     1
  9
$DIMSE1
 70
     0
  9
$DIMSE2
 70
     0
  9
$DIMTAD
 70
     0
  9
$DIMZIN
 70
     0
  9
$DIMBLK
  1

  9
$DIMASO
 70
     1
  9
$DIMSHO
 70
     1
  9
$DIMPOST
  1

  9
$DIMAPOST
  1

  9
$DIMALT
 70
     0
  9
$DIMALTD
 70
     2
  9
$DIMALTF
 40
25.4
  9
$DIMLFAC
 40
1.0
  9
$LUNITS
 70
     2
  9
$LUPREC
 70
     4
  9
$AXISMODE
 70
     0
  9
$AXISUNIT
 10
0.0
 20
0.0
  9
$SKETCHINC
 40
0.1
  9
$FILLETRAD
 40
0.0
  9
$AUNITS
 70
     0
  9
$AUPREC
 70
     0
  9
$MENU
  1
acad
  9
$ELEVATION
 40
0.0
  9
$THICKNESS
 40
0.0
  9
$VIEWDIR
 10
0.0
 20
0.0
 30
1.0
  9
$LIMCHECK
 70
     0
  9
$BLIPMODE
 70
     1
  9
$CHAMFERA
 40
0.0
  9
$CHAMFERB
 40
0.0
  9
$FASTZOOM
 70
     1
  9
$SKPOLY
 70
     0
  9
$TDCREATE
 40
0.000000000
  9
$TDUPDATE
 40
0.000000000
  9
$TDINDWG
 40
0.0000000000
  9
$TDUSRTIMER
 40
0.0000000000
  9
$USRTIMER
 70
     1
  9
$ANGBASE
 50
0.0
  9
$ANGDIR
 70
     0
  9
$PDMODE
 70
     0
  9
$PDSIZE
 40
0.0
  9
$PLINEWID
 40
0.0
  9
$COORDS
 70
     1
  9
$USERI1
 70
     0
  9
$USERI2
 70
     0
  9
$USERI3
 70
     0
  9
$USERI4
 70
     0
  9
$USERI5
 70
     0
  9
$USERR1
 40
0.0
  9
$USERR2
 40
0.0
  9
$USERR3
 40
0.0
  9
$USERR4
 40
0.0
  9
$USERR5
 40
0.0
  0
ENDSEC
  0
SECTION
  2
TABLES
  0
TABLE
  2
LTYPE
 70
     5
  0
LTYPE
  2
CONTINUOUS
 70
    64
  3
Solid line
 72
    65
 73
     0
 40
0.0
  0
LTYPE
  2
DASHED
 70
    64
  3
DASHED
 72
    65
 73
     2
 40
0.75
 49
0.5
 49
-0.25
  0
LTYPE
  2
HIDDEN
 70
    64
  3
HIDDEN
 72
    65
 73
     2
 40
0.375
 49
0.25
 49
-0.125
  0
LTYPE
  2
CENTER
 70
    64
  3
CENTER
 72
    65
 73
     4
 40
2.0
 49
1.25
 49
-0.25
 49
0.25
 49
-0.25
  0
LTYPE
  2
PHANTOM
 70
    64
  3
PHANTOM
 72
    65
 73
     6
 40
2.5
 49
1.25
 49
-0.25
 49
0.25
 49
-0.25
 49
0.25
 49
-0.25
  0
ENDTAB
  0
TABLE
  2
LAYER
 70
     2
  0
LAYER
  2
0
 70
     0
 62
     7
  6
CONTINUOUS
  0
LAYER
  2
001
 70
     0
 62
     7
  6
CONTINUOUS
  0
ENDTAB
  0
TABLE
  2
STYLE
 70
     2
  0
STYLE
  2
STANDARD
 70
     0
 40
0.0
 41
1.0
 50
0.0
 71
     0
 42
0.2
  3
TXT
  4
BIGFONT
  0
STYLE
  2
TATEGAKI
 70
     4
 40
1.0
 41
1.0
 50
0.0
 71
     0
 42
0.2
  3
TXT
  4
BIGFONT
  0
ENDTAB
  0
TABLE
  2
VIEW
 70
     0
  0
ENDTAB
  0
ENDSEC
  0
SECTION
  2
BLOCKS
  0
BLOCK
  8
001
  2
DIM-1
 70
     0
 10
0.0
 20
0.0
  0
TEXT
  8
001
 10
20.129211
 20
190.852597
 40
3.6
  1
Ｍ５×Ｐ０．８
 41
0.833333
  0
POLYLINE
  8
001
 66
     1
  0
VERTEX
  8
001
 10
57.176017
 20
176.513551
  0
VERTEX
  8
001
 10
57.725812
 20
174.517327
  0
VERTEX
  8
001
 10
56.251563
 20
175.971211
  0
SEQEND
  8
001
  0
POLYLINE
  8
001
 66
     1
  0
VERTEX
  8
001
 10
57.725812
 20
174.517327
  0
VERTEX
  8
001
 10
48.72921
 20
189.852597
  0
VERTEX
  8
001
 10
16.529211
 20
189.852597
  0
SEQEND
  8
001
  0
ENDBLK
  8
001
  0
BLOCK
  8
001
  2
*D1
 70
     1
 10
0.0
 20
0.0
  0
LINE
  8
001
 10
87.574021
 20
180.521352
 11
87.574021
 21
192.071899
  0
LINE
  8
001
 10
105.574021
 20
180.821352
 11
105.574021
 21
192.071899
  0
LINE
  8
001
 10
87.574021
 20
191.071899
 11
105.574021
 21
191.071899
  0
POLYLINE
  8
001
 66
     1
  0
VERTEX
  8
001
 10
89.574021
 20
190.536
  0
VERTEX
  8
001
 10
87.574021
 20
191.071899
  0
VERTEX
  8
001
 10
89.574021
 20
191.607797
  0
SEQEND
  8
001
  0
POLYLINE
  8
001
 66
     1
  0
VERTEX
  8
001
 10
103.574021
 20
191.607797
  0
VERTEX
  8
001
 10
105.574021
 20
191.071899
  0
VERTEX
  8
001
 10
103.574021
 20
190.536
  0
SEQEND
  8
001
  0
TEXT
  8
001
 10
93.478021
 20
192.071899
 40
3.6
  1
18
 41
1.032
  0
POINT
  8
001
 10
87.574021
 20
180.521352
  0
POINT
  8
001
 10
105.574021
 20
180.821352
  0
POINT
  8
001
 10
105.574021
 20
191.071899
  0
ENDBLK
  8
001
  0
BLOCK
  8
001
  2
*D2
 70
     1
 10
0.0
 20
0.0
  0
LINE
  8
001
 10
106.374021
 20
180.021352
 11
122.274071
 21
180.021352
  0
LINE
  8
001
 10
106.374021
 20
165.021352
 11
122.274071
 21
165.021352
  0
LINE
  8
001
 10
121.274071
 20
180.021352
 11
121.274071
 21
165.021352
  0
POLYLINE
  8
001
 66
     1
  0
VERTEX
  8
001
 10
120.738172
 20
178.021352
  0
VERTEX
  8
001
 10
121.274071
 20
180.021352
  0
VERTEX
  8
001
 10
121.809969
 20
178.021352
  0
SEQEND
  8
001
  0
POLYLINE
  8
001
 66
     1
  0
VERTEX
  8
001
 10
121.809969
 20
167.021352
  0
VERTEX
  8
001
 10
121.274071
 20
165.021352
  0
VERTEX
  8
001
 10
120.738172
 20
167.021352
  0
SEQEND
  8
001
  0
TEXT
  8
001
 10
120.274071
 20
167.877352
 40
3.6
  1
%%c15
 50
90.000003
 41
0.9675
  0
POINT
  8
001
 10
106.374021
 20
180.021352
  0
POINT
  8
001
 10
106.374021
 20
165.021352
  0
POINT
  8
001
 10
121.274071
 20
165.021352
  0
ENDBLK
  8
001
  0
BLOCK
  8
001
  2
DIM-2
 70
     0
 10
0.0
 20
0.0
  0
TEXT
  8
001
 10
168.664927
 20
191.043095
 40
3.6
  1
黄銅
 41
0.716667
  0
POLYLINE
  8
001
 66
     1
 70
     1
 40
0.5
 41
0.5
  0
VERTEX
  8
001
 10
160.578448
 20
177.526593
 42
1.0
  0
VERTEX
  8
001
 10
160.078448
 20
177.526593
 42
1.0
  0
SEQEND
  8
001
  0
POLYLINE
  8
001
 66
     1
  0
VERTEX
  8
001
 10
160.328448
 20
177.526593
  0
VERTEX
  8
001
 10
166.664927
 20
190.043095
  0
VERTEX
  8
001
 10
176.856927
 20
190.043095
  0
SEQEND
  8
001
  0
ENDBLK
  8
001
  0
BLOCK
  8
001
  2
DIM-3
 70
     0
 10
0.0
 20
0.0
  0
TEXT
  8
001
 10
134.36257
 20
158.902391
 40
3.6
  1
軟鋼
 41
0.716667
  0
POLYLINE
  8
001
 66
     1
 70
     1
 40
0.5
 41
0.5
  0
VERTEX
  8
001
 10
152.739544
 20
168.228505
 42
1.0
  0
VERTEX
  8
001
 10
152.239544
 20
168.228505
 42
1.0
  0
SEQEND
  8
001
  0
POLYLINE
  8
001
 66
     1
  0
VERTEX
  8
001
 10
152.489544
 20
168.228505
  0
VERTEX
  8
001
 10
142.55457
 20
157.902391
  0
VERTEX
  8
001
 10
132.36257
 20
157.902391
  0
SEQEND
  8
001
  0
ENDBLK
  8
001
  0
BLOCK
  8
001
  2
DIM-4
 70
     0
 10
0.0
 20
0.0
  0
TEXT
  8
001
 10
171.86796
 20
156.304143
 40
3.6
  1
アルニコ磁石
 41
0.716667
  0
POLYLINE
  8
001
 66
     1
 70
     1
 40
0.5
 41
0.5
  0
VERTEX
  8
001
 10
159.923782
 20
170.440954
 42
1.0
  0
VERTEX
  8
001
 10
159.423782
 20
170.440954
 42
1.0
  0
SEQEND
  8
001
  0
POLYLINE
  8
001
 66
     1
  0
VERTEX
  8
001
 10
159.673782
 20
170.440954
  0
VERTEX
  8
001
 10
169.86796
 20
155.304143
  0
VERTEX
  8
001
 10
192.44396
 20
155.304143
  0
SEQEND
  8
001
  0
ENDBLK
  8
001
  0
BLOCK
  8
001
  2
DIM-5
 70
     0
 10
0.0
 20
0.0
  0
TEXT
  8
001
 10
124.591574
 20
149.791917
 40
3.6
  1
吸着面
 41
0.716667
  0
POLYLINE
  8
001
 66
     1
  0
VERTEX
  8
001
 10
106.412436
 20
167.999106
  0
VERTEX
  8
001
 10
105.574021
 20
169.892317
  0
VERTEX
  8
001
 10
107.246715
 20
168.671955
  0
SEQEND
  8
001
  0
POLYLINE
  8
001
 66
     1
  0
VERTEX
  8
001
 10
105.574021
 20
169.892317
  0
VERTEX
  8
001
 10
122.591574
 20
148.791917
  0
VERTEX
  8
001
 10
135.879574
 20
148.791917
  0
SEQEND
  8
001
  0
ENDBLK
  8
001
  0
BLOCK
  8
001
  2
*D7
 70
     1
 10
0.0
 20
0.0
  0
LINE
  8
001
 10
92.574021
 20
169.021352
 11
92.574021
 21
154.833684
  0
LINE
  8
001
 10
87.574021
 20
164.521352
 11
87.574021
 21
154.833684
  0
LINE
  8
001
 10
92.574021
 20
155.833684
 11
87.574021
 21
155.833684
  0
POLYLINE
  8
001
 66
     1
  0
VERTEX
  8
001
 10
94.574021
 20
155.297786
  0
VERTEX
  8
001
 10
92.574021
 20
155.833684
  0
VERTEX
  8
001
 10
94.574021
 20
156.369583
  0
SEQEND
  8
001
  0
POLYLINE
  8
001
 66
     1
  0
VERTEX
  8
001
 10
85.574021
 20
156.369583
  0
VERTEX
  8
001
 10
87.574021
 20
155.833684
  0
VERTEX
  8
001
 10
85.574021
 20
155.297786
  0
SEQEND
  8
001
  0
TEXT
  8
001
 10
80.678021
 20
156.833684
 40
3.6
  1
5
 41
0.86
  0
POINT
  8
001
 10
92.574021
 20
169.021352
  0
POINT
  8
001
 10
87.574021
 20
164.521352
  0
POINT
  8
001
 10
87.574021
 20
155.833684
  0
LINE
  8
001
 10
92.574021
 20
155.833684
 11
95.574021
 21
155.833684
  0
LINE
  8
001
 10
87.574021
 20
155.833684
 11
79.678021
 21
155.833684
  0
ENDBLK
  8
001
  0
ENDSEC
  0
SECTION
  2
ENTITIES
  0
INSERT
  8
001
  6
BYBLOCK
 62
     0
  2
DIM-1
 10
0.0
 20
0.0
  0
DIMENSION
  8
001
  2
*D1
 10
105.574021
 20
191.071899
 11
93.478021
 21
192.071899
 13
87.574021
 23
180.521352
 14
105.574021
 24
180.821352
  0
DIMENSION
  8
001
  2
*D2
 10
121.274071
 20
165.021352
 11
120.274071
 21
167.877352
 13
106.374021
 23
180.021352
 14
106.374021
 24
165.021352
 50
270.0
  0
INSERT
  8
001
  6
BYBLOCK
 62
     0
  2
DIM-2
 10
0.0
 20
0.0
  0
INSERT
  8
001
  6
BYBLOCK
 62
     0
  2
DIM-3
 10
0.0
 20
0.0
  0
INSERT
  8
001
  6
BYBLOCK
 62
     0
  2
DIM-4
 10
0.0
 20
0.0
  0
INSERT
  8
001
  6
BYBLOCK
 62
     0
  2
DIM-5
 10
0.0
 20
0.0
  0
DIMENSION
  8
001
  2
*D7
 10
87.574021
 20
155.833684
 11
80.678021
 21
156.833684
 13
92.574021
 23
169.021352
 14
87.574021
 24
164.521352
 50
180.0
  0
LINE
  8
001
 10
0.0
 20
297.0
 11
0.0
 21
0.0
  0
LINE
  8
001
 10
0.0
 20
0.0
 11
210.0
 21
0.0
  0
LINE
  8
001
 10
210.0
 20
0.0
 11
210.0
 21
297.0
  0
LINE
  8
001
 10
210.0
 20
297.0
 11
0.0
 21
297.0
  0
LINE
  8
001
  6
CENTER
 10
85.684585
 20
172.521352
 11
107.699178
 21
172.521352
  0
LINE
  8
001
 62
     3
 10
88.074021
 20
165.021352
 11
105.374021
 21
165.021352
  0
LINE
  8
001
 62
     3
 10
87.574021
 20
165.521352
 11
88.074021
 21
165.021352
  0
LINE
  8
001
 62
     3
 10
87.574021
 20
165.521352
 11
87.574021
 21
179.521352
  0
LINE
  8
001
 62
     3
 10
88.074021
 20
180.021352
 11
87.574021
 21
179.521352
  0
LINE
  8
001
 62
     3
 10
88.074021
 20
180.021352
 11
105.374021
 21
180.021352
  0
LINE
  8
001
 62
     3
 10
105.574021
 20
179.821352
 11
105.574021
 21
165.221352
  0
LINE
  8
001
 62
     3
 10
105.574021
 20
165.221352
 11
105.374021
 21
165.021352
  0
LINE
  8
001
 62
     3
 10
105.574021
 20
179.821352
 11
105.374021
 21
180.021352
  0
LINE
  8
001
 10
88.074021
 20
165.021352
 11
88.074021
 21
180.021352
  0
CIRCLE
  8
001
 10
157.916878
 20
172.521352
 40
5.0
  0
CIRCLE
  8
001
 10
157.916878
 20
172.521352
 40
6.0
  0
LINE
  8
001
  6
CENTER
 10
157.916878
 20
183.521352
 11
157.916878
 21
161.521352
  0
LINE
  8
001
  6
CENTER
 10
146.916878
 20
172.521352
 11
168.916878
 21
172.521352
  0
CIRCLE
  8
001
 62
     3
 10
157.916878
 20
172.521352
 40
7.5
  0
LINE
  8
001
  6
DASHED
 10
92.574021
 20
175.021352
 11
87.574021
 21
175.021352
  0
LINE
  8
001
  6
DASHED
 10
94.274021
 20
174.521352
 11
87.574021
 21
174.521352
  0
LINE
  8
001
  6
DASHED
 10
94.274021
 20
174.521352
 11
94.274021
 21
170.521352
  0
LINE
  8
001
  6
DASHED
 10
92.574021
 20
170.021352
 11
92.574021
 21
175.021352
  0
LINE
  8
001
  6
DASHED
 10
93.074021
 20
174.521352
 11
93.074021
 21
170.521352
  0
LINE
  8
001
  6
DASHED
 10
94.274021
 20
174.521352
 11
95.428722
 21
172.521352
  0
LINE
  8
001
  6
DASHED
 10
93.074021
 20
174.521352
 11
92.574021
 21
175.021352
  0
LINE
  8
001
  6
DASHED
 10
94.274021
 20
170.521352
 11
95.428722
 21
172.521352
  0
LINE
  8
001
  6
DASHED
 10
94.274021
 20
170.521352
 11
87.574021
 21
170.521352
  0
LINE
  8
001
  6
DASHED
 10
92.574021
 20
170.021352
 11
87.574021
 21
170.021352
  0
LINE
  8
001
  6
DASHED
 10
93.074021
 20
170.521352
 11
92.574021
 21
170.021352
  0
LINE
  8
001
  6
CENTER
 10
59.231164
 20
183.521352
 11
59.231164
 21
161.521352
  0
LINE
  8
001
  6
CENTER
 10
70.231164
 20
172.521352
 11
48.231164
 21
172.521352
  0
CIRCLE
  8
001
 62
     3
 10
59.231164
 20
172.521352
 40
7.5
  0
CIRCLE
  8
001
 10
59.231164
 20
172.521352
 40
1.7
  0
CIRCLE
  8
001
 10
59.231164
 20
172.521352
 40
2.5
  0
LINE
  8
001
  6
DASHED
 10
105.574021
 20
178.521352
 11
100.574021
 21
178.521352
  0
LINE
  8
001
  6
DASHED
 10
105.574021
 20
166.521352
 11
100.574021
 21
166.521352
  0
TEXT
  8
001
 10
147.594426
 20
21.847548
 40
3.6
  1
KM-T0015
 41
0.938182
  0
TEXT
  8
001
 10
92.409344
 20
114.924918
 40
3.6
  1
表面処理：　ニッケルメッキ　
 41
0.716667
  0
LINE
  8
001
 10
92.409344
 20
113.924918
 11
135.753344
 21
113.924918
  0
LINE
  8
001
  6
DASHED
 10
105.574021
 20
177.521352
 11
100.574021
 21
177.521352
  0
LINE
  8
001
  6
DASHED
 10
105.574021
 20
167.521352
 11
100.574021
 21
167.521352
  0
ENDSEC
  0
EOF
